Скачать через торрент музыку Antonio Sanchez - Migration бесплатно без регистрации torrent

Если у вас наблюдаются проблемы со скриншотами, переходом по ссылками, скачиванием торрентов - проблемы в блокировщике рекламы AdBlock. #хорошегоДня!


Статистика раздачи
Размер:  372 MB   |    Зарегистрирован:  5 лет 7 месяцев   |    .torrent скачан:  52 раза   |   
Раздают:  1  
   
Загрузка...
 
Автор Сообщение

Umakiro

avatar Umakiro


Antonio Sanchez - Migration

Жанр: Contemporary Jazz, Post-Bop
Год выпуска диска: 2007
Производитель диска: Cam Jazz CAM 5026 (пиратский)
Аудио кодек: FLAC
Тип рипа: image+.cue
Битрейт аудио: lossless
Продолжительность: 66:23
Происxождение рипа: Собственный рип из личной коллекции

Трэклист:
1. One for Antonio (Chick Corea) 9:01
2. Did you get it? (Antonio Sanchez) 7:23
3. Arena (Sand) (Pat Metheny) 9:30
4. Challenge Within (Antonio Sanchez) 8:44
5. Ballade (Antonio Sanchez) 6:29
6. Greedy Silence (Antonio Sanchez) 10:53
7. Inner Urge (Joe Henderson) 9:28
8. Solar (Miles Davis) 4:36

Доп. информация:
Исполнители:
Antonio Sanchez: drums
Chris Potter: tenor and soprano sax
David Sanchez: tenor sax
Scott Colley: bass
Pat Metheny: guitar (tr. 3, 8)
Chick Corea: piano (tr. 1)
Exact Audio Copy V0.99 prebeta 4 from 23. January 2008

Отчёт EAC об извлечении, выполненном 8. июня 2010, 23:08

Antonio Sanchez / Migration

Дисковод: ASUS DRW-20B1LT Adapter: 4 ID: 0

Режим чтения : Достоверность
Использование точного потока : Да
Отключение кэша аудио : Да
Использование указателей C2 : Нет

Коррекция смещения при чтении : 6
Способность читать области Lead-in и Lead-out : Нет
Заполнение пропущенных сэмплов тишиной : Да
Удаление блоков с тишиной в начале и конце : Нет
При вычислениях CRC использовались нулевые сэмплы : Да
Интерфейс : Встроенный Win32-интерфейс для Win NT/2000

Выходной формат : Пользовательский кодировщик
Выбранный битрейт : 768 kBit/s
Качество : Высокий
Добавление ID3-тэга : Нет
Утилита сжатия : D:\Program Files\Exact Audio Copy\Flac\Flac.exe
Дополнительные параметры : -8 --delete-input-file -o "D:\CDImage.flac" -V %s

TOC извлечённого CD

Трек | Старт | Длительность | Начальный сектор | Конечный сектор
---------------------------------------------------------------------
1 | 0:00.00 | 9:03.37 | 0 | 40761
2 | 9:03.37 | 7:26.35 | 40762 | 74246
3 | 16:29.72 | 9:32.00 | 74247 | 117146
4 | 26:01.72 | 8:47.15 | 117147 | 156686
5 | 34:49.12 | 6:31.66 | 156687 | 186077
6 | 41:21.03 | 10:55.56 | 186078 | 235258
7 | 52:16.59 | 9:29.70 | 235259 | 278003
8 | 61:46.54 | 4:36.48 | 278004 | 298751

Характеристики диапазона извлечения и сообщения об ошибках

Выбранный диапазон

Имя файла D:\Antonio Sanchez - Migration.wav

Пиковый уровень 96.3 %
Качество диапазона 100.0 %
CRC теста 03A02CED
CRC копии 03A02CED
Копирование... OK

Ошибок не произошло

AccurateRip: сводка

Трек 1 точность не определена (достоверность 9) [CBB98047], AccurateRip вернул [0867424E]
Трек 2 точность не определена (достоверность 9) [A601EB93], AccurateRip вернул [D1F5A79B]
Трек 3 точность не определена (достоверность 9) [9E5D4598], AccurateRip вернул [9343F720]
Трек 4 точность не определена (достоверность 9) [8073C000], AccurateRip вернул [81AD1E28]
Трек 5 точность не определена (достоверность 9) [084D8AF1], AccurateRip вернул [C1751181]
Трек 6 точность не определена (достоверность 9) [50413583], AccurateRip вернул [608851DB]
Трек 7 точность не определена (достоверность 9) [C9067F1D], AccurateRip вернул [6FB12635]
Трек 8 точность не определена (достоверность 9) [BDD71D92], AccurateRip вернул [B67B15C7]

Ни один трек не прошёл проверки на точность
В вашей базе может быть иной вариант штамповки диска

Конец отчёта


Трекер:  [ 21-Фев-2012 12:12 ]

  

Скачать .torrent

Размер .torrent файла 30 KB


Размер: 372 MB
Хэш (hash) релиза: fe878314aa68788d094d3662fa0008e8c33a0c25

Еще никто не оставлял запись к записи скачать торрент Antonio Sanchez - Migration . Будь первым!

!Обратная связь