Скачать через торрент музыку Thelonious Monk - Monk In France бесплатно без регистрации torrent

Если у вас наблюдаются проблемы со скриншотами, переходом по ссылками, скачиванием торрентов - проблемы в блокировщике рекламы AdBlock. #хорошегоДня!


Статистика раздачи
Размер:  321 MB   |    Зарегистрирован:  5 лет 7 месяцев   |    .torrent скачан:  26 раз   |   
Раздают:  1  
   
Загрузка...
 
Автор Сообщение

Umakiro

avatar Umakiro


Monk in france
Жанр: Bop / Post-Bop
Страна-производитель диска: USA
Год издания диска: 1991
Издатель (лейбл): Riverside / OJC
Номер по каталогу: 00025218667029
Аудио кодек: FLAC (*.flac)
Тип рипа: tracks+.cue
Битрейт аудио: lossless
Продолжительность: 59:42
Наличие сканов в содержимом раздачи: yes
Источник (релизер): nnm, thanks scofild
Треклист:
1. Well, You Needn't
2. Off Minor
3. Just a Gigolo
4. I Mean You
5. Hackensack
6. I'm Getting Sentimental Over You
7. Body and Soul
8. Crepuscule With Nellie
Исполнители
:
Thelonious Monk - piano
Charlie Rouse - tenor saxophone
John Ore - bass
Frankie Dunlop - drums

Recorded in Paris on April 18, 1961 (7, 8 - bonus tracks for CD).
 
Exact Audio Copy V0.99 prebeta 5 from 4. May 2009

EAC extraction logfile from 9. January 2010, 23:36

Thelonious Monk / Monk In France

Used drive : PLEXTOR CD-R PREMIUM2 Adapter: 1 ID: 1

Read mode : SecureUtilize accurate stream : YesDefeat audio cache : YesMake use of C2 pointers : No

Read offset correction : 30Overread into Lead-In and Lead-Out : NoFill up missing offset samples with silence : YesDelete leading and trailing silent blocks : NoNull samples used in CRC calculations : YesUsed interface : Installed external ASPI interfaceGap handling : Appended to previous track

Used output format : User Defined EncoderSelected bitrate : 32 kBit/sQuality : HighAdd ID3 tag : NoCommand line compressor : C:\Programmi\FLAC\flac.exeAdditional command line options : -8 -V -T "ARTIST=%a" -T "TITLE=%t" -T "ALBUM=%g" -T "DATE=%y" -T "TRACKNUMBER=%n" -T "GENRE=%m" -T "COMMENT=EAC FLAC -8" %s

TOC of the extracted CD

Track | Start | Length | Start sector | End sector --------------------------------------------------------- 1 | 0:00.00 | 11:31.38 | 0 | 51862 2 | 11:31.38 | 11:42.20 | 51863 | 104532 3 | 23:13.58 | 1:43.30 | 104533 | 112287 4 | 24:57.13 | 11:02.67 | 112288 | 162004 5 | 36:00.05 | 9:46.58 | 162005 | 206012 6 | 45:46.63 | 8:31.05 | 206013 | 244342 7 | 54:17.68 | 2:48.55 | 244343 | 256997 8 | 57:06.48 | 2:39.52 | 256998 | 268974

Track 1

Filename D:\My Rip\01 - Well, You Needn't.wav

Pre-gap length 0:00:02.00

Peak level 96.9 % Track quality 100.0 % Test CRC 4C7DC907 Copy CRC 4C7DC907 Cannot be verified as accurate (confidence 1) [64BC6CED], AccurateRip returned [B3732559] Copy OK

Track 2

Filename D:\My Rip\02 - Off Minor.wav

Pre-gap length 0:00:00.86

Peak level 64.6 % Track quality 100.0 % Test CRC 58D0EEE8 Copy CRC 58D0EEE8 Cannot be verified as accurate (confidence 1) [8C6E2F76], AccurateRip returned [53DE35F1] Copy OK

Track 3

Filename D:\My Rip\03 - Just A Gigolo.wav

Pre-gap length 0:00:00.80

Peak level 71.8 % Track quality 100.0 % Test CRC EA316B7E Copy CRC EA316B7E Cannot be verified as accurate (confidence 1) [5EE5CE43], AccurateRip returned [A42FA68E] Copy OK

Track 4

Filename D:\My Rip\04 - I Mean You.wav

Pre-gap length 0:00:01.33

Peak level 75.6 % Track quality 100.0 % Test CRC FB32F82F Copy CRC FB32F82F Cannot be verified as accurate (confidence 1) [BCC9275C], AccurateRip returned [6442CC6B] Copy OK

Track 5

Filename D:\My Rip\05 - Hackensack.wav

Pre-gap length 0:00:00.56

Peak level 83.7 % Track quality 100.0 % Test CRC 699DEFDB Copy CRC 699DEFDB Cannot be verified as accurate (confidence 1) [84227A32], AccurateRip returned [5F0BA9F8] Copy OK

Track 6

Filename D:\My Rip\06 - I'm Getting Sentimental Over You.wav

Pre-gap length 0:00:00.44

Peak level 76.5 % Track quality 100.0 % Test CRC EDE60072 Copy CRC EDE60072 Cannot be verified as accurate (confidence 1) [A101169F], AccurateRip returned [123153BA] Copy OK

Track 7

Filename D:\My Rip\07 - Body And Soul (Solo).wav

Pre-gap length 0:00:00.60

Peak level 81.6 % Track quality 100.0 % Test CRC 3BE7276F Copy CRC 3BE7276F Cannot be verified as accurate (confidence 1) [B8FE26C1], AccurateRip returned [0CDF710F] Copy OK

Track 8

Filename D:\My Rip\08 - Crepuscule With Nellie.wav

Pre-gap length 0:00:00.37

Peak level 79.0 % Track quality 100.0 % Test CRC 627E9F15 Copy CRC 627E9F15 Cannot be verified as accurate (confidence 1) [741350B1], AccurateRip returned [06CC49D1] Copy OK

No tracks could be verified as accurateYou may have a different pressing from the one(s) in the database

No errors occurred

End of status report
 
REM GENRE JazzREM DATE 1961REM DISCID 810E0208REM COMMENT "ExactAudioCopy v0.99pb5"PERFORMER "Thelonious Monk"TITLE "Monk In France"FILE "01 - Well, You Needn't.flac" WAVE TRACK 01 AUDIO TITLE "Well, You Needn't" PERFORMER "Thelonious Monk" INDEX 01 00:00:00 TRACK 02 AUDIO TITLE "Off Minor" PERFORMER "Thelonious Monk" INDEX 00 11:30:48FILE "02 - Off Minor.flac" WAVE INDEX 01 00:00:00 TRACK 03 AUDIO TITLE "Just A Gigolo" PERFORMER "Thelonious Monk" INDEX 00 11:41:35FILE "03 - Just A Gigolo.flac" WAVE INDEX 01 00:00:00 TRACK 04 AUDIO TITLE "I Mean You" PERFORMER "Thelonious Monk" INDEX 00 01:42:05FILE "04 - I Mean You.flac" WAVE INDEX 01 00:00:00 TRACK 05 AUDIO TITLE "Hackensack" PERFORMER "Thelonious Monk" INDEX 00 11:02:25FILE "05 - Hackensack.flac" WAVE INDEX 01 00:00:00 TRACK 06 AUDIO TITLE "I'm Getting Sentimental Over You" PERFORMER "Thelonious Monk" INDEX 00 09:46:25FILE "06 - I'm Getting Sentimental Over You.flac" WAVE INDEX 01 00:00:00 TRACK 07 AUDIO TITLE "Body And Soul (Solo)" PERFORMER "Thelonious Monk" INDEX 00 08:30:35FILE "07 - Body And Soul (Solo).flac" WAVE INDEX 01 00:00:00 TRACK 08 AUDIO TITLE "Crepuscule With Nellie" PERFORMER "Thelonious Monk" INDEX 00 02:48:27FILE "08 - Crepuscule With Nellie.flac" WAVE INDEX 01 00:00:00
Монк: Википедия

Трекер:  [ 21-Фев-2012 12:11 ]

  

Скачать .torrent

Размер .torrent файла 14 KB


Размер: 321 MB
Хэш (hash) релиза: db9fa112e685afa08936aafc3e4c2d0024583fa4

Еще никто не оставлял запись к записи скачать торрент Thelonious Monk - Monk In France . Будь первым!

!Обратная связь