Скачать через торрент музыку Eddie Bert - Encore бесплатно без регистрации torrent

Если у вас наблюдаются проблемы со скриншотами, переходом по ссылками, скачиванием торрентов - проблемы в блокировщике рекламы AdBlock. #хорошегоДня!


Статистика раздачи
Размер:  152 MB   |    Зарегистрирован:  5 лет 8 месяцев   |    .torrent скачан:  12 раз   |   
Раздают:  1  
   
Загрузка...
 
Автор Сообщение

Umakiro

avatar Umakiro


Eddie Bert - Encore

Жанр: Bop
Страна-производитель диска: Япония
Год издания диска: 1955
Издатель (лейбл): Savoy Jazz/Nippon Columbia
Номер по каталогу: SV-0229
Аудио кодек: FLAC (*.flac)
Тип рипа: tracks+.cue
Битрейт аудио: lossless
Продолжительность: 35:04
Источник (релизер): Mazeppa (hqshare)
Наличие сканов в содержимом раздачи: да

Треклист:
01. Bert Tram (Bert)
02. One for Tubby (Puma)
03. It's Only Sunshine (Puma)
04. Opicana (Puma)
05. Conversation (Bert)
06. Crosstown (Bert)
07. Manhattan Suite (Bert)

#1-4:
Eddie Bert - trombone
Joe Puma - guitar
Clyde Lombardi - bass
Kenny Clarke - drums
Recorded on June 22, 1955.
#5-7:
Eddie Bert - trombone
J.R. Monterose - tenor saxophone
Hank Jones - piano
Clyde Lombardi - bass
Kenny Clarke - drums
Recorded on September 1, 1955.
 
Exact Audio Copy V0.99 prebeta 4 from 23. January 2008

EAC extraction logfile from 15. January 2009, 13:58

Eddie Bert / Encore

Used drive : TSSTcorpCDDVDW SH-S223Q Adapter: 2 ID: 1

Read mode : SecureUtilize accurate stream : YesDefeat audio cache : YesMake use of C2 pointers : No

Read offset correction : 6Overread into Lead-In and Lead-Out : NoFill up missing offset samples with silence : YesDelete leading and trailing silent blocks : NoNull samples used in CRC calculations : YesUsed interface : Installed external ASPI interfaceGap handling : Appended to previous track

Used output format : User Defined EncoderSelected bitrate : 320 kBit/sQuality : HighAdd ID3 tag : NoCommand line compressor : C:\Program Files (x86)\Exact Audio Copy\flac.exeAdditional command line options : -8 -V -T "ARTIST=%a" -T "TITLE=%t" -T "ALBUM=%g" -T "DATE=%y" -T "TRACKNUMBER=%n" -T "GENRE=%m" -T "COMMENT=EAC FLAC -8" %s

TOC of the extracted CD

Track | Start | Length | Start sector | End sector --------------------------------------------------------- 1 | 0:00.00 | 3:08.12 | 0 | 14111 2 | 3:08.12 | 5:27.25 | 14112 | 38661 3 | 8:35.37 | 3:15.13 | 38662 | 53299 4 | 11:50.50 | 3:24.25 | 53300 | 68624 5 | 15:15.00 | 6:48.12 | 68625 | 99236 6 | 22:03.12 | 7:18.18 | 99237 | 132104 7 | 29:21.30 | 5:44.20 | 132105 | 157924

Track 1

Filename C:\Audio\Eddie Bert - Encore\01 - Bert Tram.wav

Pre-gap length 0:00:02.00

Peak level 100.0 % Track quality 100.0 % Test CRC F9420476 Copy CRC F9420476 Track not present in AccurateRip database Copy OK

Track 2

Filename C:\Audio\Eddie Bert - Encore\02 - One For Tubby.wav

Pre-gap length 0:00:01.82

Peak level 63.4 % Track quality 100.0 % Test CRC 60E71EB4 Copy CRC 60E71EB4 Track not present in AccurateRip database Copy OK

Track 3

Filename C:\Audio\Eddie Bert - Encore\03 - It's Only Sunshine.wav

Pre-gap length 0:00:02.16

Peak level 95.4 % Track quality 100.0 % Test CRC 8E02BAEA Copy CRC 8E02BAEA Track not present in AccurateRip database Copy OK

Track 4

Filename C:\Audio\Eddie Bert - Encore\04 - Opicana.wav

Pre-gap length 0:00:01.82

Peak level 79.6 % Track quality 100.0 % Test CRC D2CB71D6 Copy CRC D2CB71D6 Track not present in AccurateRip database Copy OK

Track 5

Filename C:\Audio\Eddie Bert - Encore\05 - Conversation.wav

Pre-gap length 0:00:02.00

Peak level 86.2 % Track quality 100.0 % Test CRC 0CA31D7A Copy CRC 0CA31D7A Track not present in AccurateRip database Copy OK

Track 6

Filename C:\Audio\Eddie Bert - Encore\06 - Crosstown.wav

Pre-gap length 0:00:02.82

Peak level 71.6 % Track quality 100.0 % Test CRC 9DE27280 Copy CRC 9DE27280 Track not present in AccurateRip database Copy OK

Track 7

Filename C:\Audio\Eddie Bert - Encore\07 - Manhattan Suite.wav

Pre-gap length 0:00:02.93

Peak level 76.6 % Track quality 100.0 % Test CRC 44C8FC90 Copy CRC 44C8FC90 Track not present in AccurateRip database Copy OK

None of the tracks are present in the AccurateRip database

No errors occurred

End of status report
 
REM DISCID 50083907REM COMMENT "ExactAudioCopy v0.99pb4"PERFORMER "Eddie Bert"TITLE "Encore"FILE "01 - Bert Tram.wav" WAVE TRACK 01 AUDIO TITLE "Bert Tram" PERFORMER "Eddie Bert" INDEX 01 00:00:00 TRACK 02 AUDIO TITLE "One for Tubby" PERFORMER "Eddie Bert" INDEX 00 03:06:25FILE "02 - One for Tubby.wav" WAVE INDEX 01 00:00:00 TRACK 03 AUDIO TITLE "It's Only Sunshine" PERFORMER "Eddie Bert" INDEX 00 05:25:13FILE "03 - It's Only Sunshine.wav" WAVE INDEX 01 00:00:00 TRACK 04 AUDIO TITLE "Opicana" PERFORMER "Eddie Bert" INDEX 00 03:13:26FILE "04 - Opicana.wav" WAVE INDEX 01 00:00:00 TRACK 05 AUDIO TITLE "Conversation" PERFORMER "Eddie Bert" INDEX 00 03:22:25FILE "05 - Conversation.wav" WAVE INDEX 01 00:00:00 TRACK 06 AUDIO TITLE "Crosstown" PERFORMER "Eddie Bert" INDEX 00 06:45:25FILE "06 - Crosstown.wav" WAVE INDEX 01 00:00:00 TRACK 07 AUDIO TITLE "Manhattan Suite" PERFORMER "Eddie Bert" INDEX 00 07:15:23FILE "07 - Manhattan Suite.wav" WAVE INDEX 01 00:00:00
Trombonist Eddie Bert has had a long and honorable musical career but relatively few opportunities to record as a leader. He is heard in two different settings on this CD reissue; with a pianoless quartet that includes guitarist Joe Puma and with a quintet that includes pianist Hank Jones and the complementary tenor of J.R. Monterose. The repertoire is comprised entirely of originals by either Bert or Puma but the style is very much of the era: cool-toned and lightly swinging bop. Despite the extreme brevity of this CD (under 35 minutes), the music is worth exploring.


Трекер:  [ 21-Фев-2012 12:09 ]

  

Скачать .torrent

Размер .torrent файла 13 KB


Размер: 152 MB
Хэш (hash) релиза: 401d9b4411a29072adb827a8b4b6296e33e68671

Еще никто не оставлял запись к записи скачать торрент Eddie Bert - Encore . Будь первым!

!Обратная связь