Скачать через торрент музыку Franco Ambrosetti - European Legacy - 2003, FLAC бесплатно без регистрации torrent

Если у вас наблюдаются проблемы со скриншотами, переходом по ссылками, скачиванием торрентов - проблемы в блокировщике рекламы AdBlock. #хорошегоДня!


Статистика раздачи
Размер:  388 MB   |    Зарегистрирован:  5 лет 7 месяцев   |    .torrent скачан:  24 раза   |   
Раздают:  1  
   
Загрузка...
 
Автор Сообщение

Umakiro

avatar Umakiro



Franco Ambrosetti - European Legacy

Жанр: Hard Bop, Modern Big Band, Third Stream
Страна-производитель диска: Germany
Год издания диска: 2003
Издатель (лейбл): Enja
Номер по каталогу: ENJ-9429 2
Страна: Lugano, Switzerland
Аудиокодек: FLAC (*.flac)
Тип рипа: image+.cue
Битрейт аудио: lossless
Продолжительность: 01:00:14
Источник (релизер): into
Наличие сканов в содержимом раздачи: да
01. Consolation [03:00]
02. Waltzing With Flavia [06:08]
03. Tu Te Laisse Aller [02:08]
04. Suenos [08:09]
05. Leontine [02:53]
06. Don't Be Silli [03:08]
07. Flagellation, Too [01:25]
08. L'Irriducibilitа [05:06]
09. Danny And Dado In Arlen [03:59]
10. Spherical Hormonics [06:13]
11. Hymne А L'Amour [02:55]
12. Si, Lo Sapero [07:54]
13. The Smart Went Crazy [05:04]
14. Giro Giro Tondo [02:04]
 
Exact Audio Copy V0.99 prebeta 5 from 4. May 2009

EAC extraction logfile from 16. February 2012, 8:44

Franco Ambrosetti / European Legacy

Used drive : _NEC DVD_RW ND-3500AG Adapter: 0 ID: 0

Read mode : SecureUtilize accurate stream : YesDefeat audio cache : YesMake use of C2 pointers : No

Read offset correction : 48Overread into Lead-In and Lead-Out : NoFill up missing offset samples with silence : YesDelete leading and trailing silent blocks : NoNull samples used in CRC calculations : YesUsed interface : Native Win32 interface for Win NT & 2000

Used output format : User Defined EncoderSelected bitrate : 768 kBit/sQuality : HighAdd ID3 tag : NoCommand line compressor : C:\Program Files\Exact Audio Copy\FLAC\FLAC.EXEAdditional command line options : -6 -V -T "ARTIST=%a" -T "TITLE=%t" -T "ALBUM=%g" -T "DATE=%y" -T "TRACKNUMBER=%n" -T "GENRE=%m" -T "COMMENT=%e" %s -o %d

TOC of the extracted CD

Track | Start | Length | Start sector | End sector --------------------------------------------------------- 1 | 0:00.00 | 3:02.46 | 0 | 13695 2 | 3:02.46 | 6:10.16 | 13696 | 41461 3 | 9:12.62 | 2:10.69 | 41462 | 51280 4 | 11:23.56 | 8:11.72 | 51281 | 88177 5 | 19:35.53 | 2:55.18 | 88178 | 101320 6 | 22:30.71 | 3:11.33 | 101321 | 115678 7 | 25:42.29 | 1:28.32 | 115679 | 122310 8 | 27:10.61 | 5:09.30 | 122311 | 145515 9 | 32:20.16 | 4:03.18 | 145516 | 163758 10 | 36:23.34 | 6:16.15 | 163759 | 191973 11 | 42:39.49 | 3:00.57 | 191974 | 205530 12 | 45:40.31 | 7:57.05 | 205531 | 241310 13 | 53:37.36 | 5:06.62 | 241311 | 264322 14 | 58:44.23 | 2:04.68 | 264323 | 273690

Range status and errors

Selected range

Filename J:\eMusic\Rip\Franco Ambrosetti - European Legacy.wav

Peak level 98.9 % Range quality 99.9 % Copy CRC D6D95D4B Copy OK

No errors occurred

AccurateRip summary

Track 1 accurately ripped (confidence 4) [8A6D30C1]Track 2 accurately ripped (confidence 4) [95DCFAA3]Track 3 accurately ripped (confidence 4) [B07B577F]Track 4 accurately ripped (confidence 4) [4644F13B]Track 5 accurately ripped (confidence 4) [3EC2418C]Track 6 accurately ripped (confidence 4) [8E06B629]Track 7 accurately ripped (confidence 4) [4B3C225B]Track 8 accurately ripped (confidence 4) [B2A5C507]Track 9 accurately ripped (confidence 4) [65959361]Track 10 accurately ripped (confidence 4) [5B9D78D4]Track 11 accurately ripped (confidence 4) [3D0E5458]Track 12 accurately ripped (confidence 4) [2672CFA6]Track 13 accurately ripped (confidence 4) [C29A01BD]Track 14 accurately ripped (confidence 4) [84F8B716]

All tracks accurately ripped

End of status report
 
REM GENRE JazzREM DATE 2003REM DISCID C10E410EREM COMMENT "ExactAudioCopy v0.99pb5"PERFORMER "Franco Ambrosetti"TITLE "European Legacy"FILE "Franco Ambrosetti - European Legacy.flac" WAVE TRACK 01 AUDIO TITLE "Consolation" PERFORMER "Franco Ambrosetti" INDEX 01 00:00:00 TRACK 02 AUDIO TITLE "Waltzing With Flavia" PERFORMER "Franco Ambrosetti" INDEX 00 03:00:24 INDEX 01 03:02:46 TRACK 03 AUDIO TITLE "Tu Te Laisse Aller" PERFORMER "Franco Ambrosetti" INDEX 00 09:10:71 INDEX 01 09:12:62 TRACK 04 AUDIO TITLE "Suenos" PERFORMER "Franco Ambrosetti" INDEX 00 11:21:14 INDEX 01 11:23:56 TRACK 05 AUDIO TITLE "Leontine" PERFORMER "Franco Ambrosetti" INDEX 00 19:33:06 INDEX 01 19:35:53 TRACK 06 AUDIO TITLE "Don't Be Silli" PERFORMER "Franco Ambrosetti" INDEX 00 22:28:56 INDEX 01 22:30:71 TRACK 07 AUDIO TITLE "Flagellation, Too" PERFORMER "Franco Ambrosetti" INDEX 00 25:39:60 INDEX 01 25:42:29 TRACK 08 AUDIO TITLE "L'Irriducibilitа" PERFORMER "Franco Ambrosetti" INDEX 00 27:08:28 INDEX 01 27:10:61 TRACK 09 AUDIO TITLE "Danny And Dado In Arlen" PERFORMER "Franco Ambrosetti" INDEX 00 32:17:39 INDEX 01 32:20:16 TRACK 10 AUDIO TITLE "Spherical Hormonics" PERFORMER "Franco Ambrosetti" INDEX 00 36:20:11 INDEX 01 36:23:34 TRACK 11 AUDIO TITLE "Hymne А L'Amour" PERFORMER "Franco Ambrosetti" INDEX 00 42:37:15 INDEX 01 42:39:49 TRACK 12 AUDIO TITLE "Si, Lo Sapero" PERFORMER "Franco Ambrosetti" INDEX 00 45:35:28 INDEX 01 45:40:31 TRACK 13 AUDIO TITLE "The Smart Went Crazy" PERFORMER "Franco Ambrosetti" INDEX 00 53:35:22 INDEX 01 53:37:36 TRACK 14 AUDIO TITLE "Giro Giro Tondo" PERFORMER "Franco Ambrosetti" INDEX 00 58:41:50 INDEX 01 58:44:23
Franco Ambrosetti (trumpet, fluegelhorn)
Gianluca Ambrosetti (soprano sax)
Dado Moroni (piano)
François Moutin (bass)
Daniel Humair (drums)


Трекер:  [ 21-Фев-2012 12:08 ]

  

Скачать .torrent

Размер .torrent файла 16 KB


Размер: 388 MB
Хэш (hash) релиза: 026e5d92835424862a575be3674bfb62db17f1cc

Еще никто не оставлял запись к записи скачать торрент Franco Ambrosetti - European Legacy - 2003, FLAC . Будь первым!

!Обратная связь