Скачать через торрент музыку Arthur Taylor - Taylors Wailers - 1957, FLAC бесплатно без регистрации torrent

Если у вас наблюдаются проблемы со скриншотами, переходом по ссылками, скачиванием торрентов - проблемы в блокировщике рекламы AdBlock. #хорошегоДня!


Статистика раздачи
Размер:  287 MB   |    Зарегистрирован:  5 лет 8 месяцев   |    .torrent скачан:  28 раз   |   
Раздают:  1  
   
Загрузка...
 
Автор Сообщение

Umakiro

avatar Umakiro


Arthur Taylor - Taylor's Wailers

Жанр: Hard Bop
Год выпуска диска: 1957
Производитель диска: USA
Аудио кодек: FLAC
Тип рипа: image+.cue
Битрейт аудио: lossless
Продолжительность: 41:00
Лейбл: Prestige
Источник: NoNaMe

Трэклист:
1. Batland
2. C.T.A.
3. Exhibit A
4. Cubano Chant
5. Off Minor
6. Well, You Needn't

Музыканты:
Art Taylor - drums
Donald Byrd - trumpet (1,3-6)
Jackie McLean - alto sax (1,3-6)
Charlie Rouse(1,3-6), John Coltrane(2) - tenor sax
Ray Bryant(1,3-6), Red Garland(2) - piano
Wendell Marshall(1,3-6), Paul Chambers(2) - bass
 
Exact Audio Copy V0.99 prebeta 3 from 28. July 2007

Отчёт EAC об извлечении, выполненном 4. декабря 2008, 22:20

Arthur Taylor / Taylor's Wailers

Дисковод: HL-DT-STDVD-RAM GSA-H55N Adapter: 0 ID: 0

Режим чтения : ДостоверностьИспользование точного потока : ДаОтключение кэша аудио : ДаИспользование указателей C2 : Нет

Коррекция смещения при чтении : 102Способность читать области Lead-in и Lead-out : НетЗаполнение пропущенных сэмплов тишиной : ДаУдаление блоков с тишиной в начале и конце : НетПри вычислениях CRC использовались нулевые сэмплы : НетИнтерфейс : Установленный внешний ASPI-интерфейс

Выходной формат : Пользовательский кодировщикВыбранный битрейт : 768 kBit/sКачество : ВысокийДобавление ID3-тэга : НетУтилита сжатия : C:\Program Files\Exact Audio Copy\FLAC\FLAC.EXEДополнительные параметры : -6 -V -T "ARTIST=%a" -T "TITLE=%t" -T "ALBUM=%g" -T "DATE=%y" -T "TRACKNUMBER=%n" -T "GENRE=%m" -T "COMMENT=%e" %s -o %d

TOC извлечённого CD

Трек | Старт | Длительность | Начальный сектор | Конечный сектор --------------------------------------------------------------------- 1 | 0:00.00 | 9:53.12 | 0 | 44486 2 | 9:53.12 | 4:44.23 | 44487 | 65809 3 | 14:37.35 | 6:15.52 | 65810 | 93986 4 | 20:53.12 | 6:36.50 | 93987 | 123736 5 | 27:29.62 | 5:38.68 | 123737 | 149154 6 | 33:08.55 | 7:55.20 | 149155 | 184799

Характеристики диапазона извлечения и сообщения об ошибках

Выбранный диапазон

Имя файла C:\Users\Миша\Documents\Arthur Taylor - Taylor's Wailers\Arthur Taylor - Taylor's Wailers.wav

Пиковый уровень 100.0 % Качество диапазона 100.0 % CRC копии 9EA29031 Копирование... OK

Ошибок не произошло

AccurateRip: сводка

Трек 1 точность не определена (достоверность 2) [F887286D], AccurateRip вернул [A1F2B7DB]Трек 2 точность не определена (достоверность 2) [2EE1128A], AccurateRip вернул [549AB000]Трек 3 точность не определена (достоверность 2) [79B51309], AccurateRip вернул [A2CBB9B0]Трек 4 точность не определена (достоверность 2) [D0E715E1], AccurateRip вернул [0CB2291D]Трек 5 точность не определена (достоверность 2) [42A2F552], AccurateRip вернул [C4719B5B]Трек 6 точность не определена (достоверность 2) [9D33870F], AccurateRip вернул [FD8C8E35]

Ни один трек не прошёл проверки на точностьВ вашей базе может быть иной вариант штамповки диска

Конец отчёта
 
AUDIOCHECKER v1.2 - by Dester - opdester@freemail.hu~~~~~~~~~~~~~~~~~

1 -===- E:\Up-Down\Arthur Taylor - Taylor's Wailers\Arthur Taylor - Taylor's Wailers.flac Extracted successfully Conclusion: This track looks like CDDA with probability 99%


Трекер:  [ 21-Фев-2012 12:05 ]

  

Скачать .torrent

Размер .torrent файла 12 KB


Размер: 287 MB
Хэш (hash) релиза: fcd4f040d50d583bc064fb46564f64c12a3a40c0

Еще никто не оставлял запись к записи скачать торрент Arthur Taylor - Taylors Wailers - 1957, FLAC . Будь первым!

!Обратная связь