Скачать через торрент музыку Ahmad Jamal бесплатно без регистрации torrent

Если у вас наблюдаются проблемы со скриншотами, переходом по ссылками, скачиванием торрентов - проблемы в блокировщике рекламы AdBlock. #хорошегоДня!


Статистика раздачи
Размер:  470 MB   |    Зарегистрирован:  5 лет 7 месяцев   |    .torrent скачан:  28 раз   |   
Раздают:  1  
   
Загрузка...
 
Автор Сообщение

Umakiro

avatar Umakiro


Ahmad Jamal - Blue Moon: The New York Session

Жанр: Post-Bop / Piano Jazz
Страна-производитель диска: France
Год издания диска: 2012
Издатель (лейбл): Jazz Village
Номер по каталогу: JV 570001
Аудиокодек: FLAC (*.flac)
Тип рипа: tracks+.cue
Битрейт аудио: lossless
Продолжительность: 76:20
Источник (релизер): другой трекер
Наличие сканов в содержимом раздачи: да / *.jpg (600 dpi)

Треклист:

1. Autumn Rain (Ahmad Jamal) (07:38)
2. Blue Moon (Richard Rodgers - Lorenzo Hart) (09:56)
3. Gypsy (Billy Reid) (05:14)
4. Invitation (Bronislau Kaper) (13:14)
5. I Remember Italy (Ahmad Jamal) (13:08)
6. Laura (David Raksin - Johnny Mercer) (06:30)
7. Morning Mist (Ahmad Jamal) (08:20)
8. This is the Life (Lee Adams - Charles Strouse) (07:09)
9. Woody'n You (Dizzy Gillespie) (04:56)

Доп. информация:

Musicians:
AHMAD JAMAL - piano
REGINALD VEAL - double bass
HERLIN RILEY - drums
MANOLO BADRENA - percussion

Recorded at Avatar Studios, New York City, New York, USA, October 2011
© 2012 ACM Productions - Jazzbook Records

AHMAD JAMAL Official Site
AHMAD JAMAL from Wikipedia, the free encyclopedia
AHMAD JAMAL - Blue Moon: The New York Session allmusic.com
 
Exact Audio Copy V1.0 beta 3 from 29. August 2011

EAC extraction logfile from 9. February 2012, 18:28

Ahmad Jamal / Blue Moon

Used drive : PHILIPS SPD3400CC Adapter: 3 ID: 0

Read mode : SecureUtilize accurate stream : YesDefeat audio cache : YesMake use of C2 pointers : No

Read offset correction : 6Overread into Lead-In and Lead-Out : NoFill up missing offset samples with silence : YesDelete leading and trailing silent blocks : NoNull samples used in CRC calculations : YesUsed interface : Installed external ASPI interfaceGap handling : Appended to previous track

Used output format : User Defined EncoderSelected bitrate : 1024 kBit/sQuality : HighAdd ID3 tag : NoCommand line compressor : C:\Program Files (x86)\Exact Audio Copy\FLAC\FLAC.EXEAdditional command line options : -8 -V -T "ARTIST=%artist%" -T "TITLE=%title%" -T "ALBUM=%albumtitle%" -T "DATE=%year%" -T "TRACKNUMBER=%tracknr%" -T "TOTALTRACKS=%numtracks%" -T "GENRE=%genre%" -T "ALBUM ARTIST=%albumartist%" -T "ALBUMARTIST=%albumartist%" -T "COMMENT=EAC V1.0 beta 3, Secure Mode, Test & Copy, AccurateRip, FLAC -8" %source%

TOC of the extracted CD

Track | Start | Length | Start sector | End sector --------------------------------------------------------- 1 | 0:00.00 | 7:37.57 | 0 | 34331 2 | 7:37.57 | 9:55.13 | 34332 | 78969 3 | 17:32.70 | 5:13.49 | 78970 | 102493 4 | 22:46.44 | 13:13.12 | 102494 | 161980 5 | 35:59.56 | 13:07.53 | 161981 | 221058 6 | 49:07.34 | 6:29.45 | 221059 | 250278 7 | 55:37.04 | 8:19.48 | 250279 | 287751 8 | 63:56.52 | 7:08.59 | 287752 | 319910 9 | 71:05.36 | 4:56.60 | 319911 | 342170

Track 1

Filename C:\Rips\01 Autumn Rain.wav

Pre-gap length 0:00:02.00

Peak level 97.7 % Extraction speed 2.2 X Track quality 100.0 % Test CRC 8CC0539B Copy CRC 8CC0539B Track not present in AccurateRip database Copy OK

Track 2

Filename C:\Rips\02 Blue Moon.wav

Peak level 96.6 % Extraction speed 2.7 X Track quality 100.0 % Test CRC A3E1E78B Copy CRC A3E1E78B Track not present in AccurateRip database Copy OK

Track 3

Filename C:\Rips\03 Gypsy.wav

Peak level 96.6 % Extraction speed 2.9 X Track quality 100.0 % Test CRC 2ED57D63 Copy CRC 2ED57D63 Track not present in AccurateRip database Copy OK

Track 4

Filename C:\Rips\04 Invitation.wav

Peak level 97.7 % Extraction speed 3.1 X Track quality 99.9 % Test CRC 4FC0B0D8 Copy CRC 4FC0B0D8 Track not present in AccurateRip database Copy OK

Track 5

Filename C:\Rips\05 I Remember Italy.wav

Peak level 96.6 % Extraction speed 3.9 X Track quality 100.0 % Test CRC A2647734 Copy CRC A2647734 Track not present in AccurateRip database Copy OK

Track 6

Filename C:\Rips\06 Laura.wav

Peak level 96.6 % Extraction speed 4.0 X Track quality 100.0 % Test CRC E196744C Copy CRC E196744C Track not present in AccurateRip database Copy OK

Track 7

Filename C:\Rips\07 Morning Mist.wav

Peak level 96.6 % Extraction speed 3.6 X Track quality 99.9 % Test CRC B3274E64 Copy CRC B3274E64 Track not present in AccurateRip database Copy OK

Track 8

Filename C:\Rips\08 This is the Life.wav

Peak level 95.5 % Extraction speed 4.5 X Track quality 100.0 % Test CRC 26B6BE8B Copy CRC 26B6BE8B Track not present in AccurateRip database Copy OK

Track 9

Filename C:\Rips\09 Woody'n You.wav

Peak level 96.6 % Extraction speed 3.3 X Track quality 99.9 % Test CRC D7A2D4BB Copy CRC D7A2D4BB Track not present in AccurateRip database Copy OK

None of the tracks are present in the AccurateRip database

No errors occurred

End of status report

==== Log checksum 0647950246633392ECCEC081203A87B57EE7ED6A87B9F6E7225725718A5A4D53 ====
 
REM GENRE JazzREM DATE 2012REM DISCID 8D11D209REM COMMENT "ExactAudioCopy v1.0b3"PERFORMER "Ahmad Jamal"TITLE "Blue Moon"FILE "01 Autumn Rain.wav" WAVE TRACK 01 AUDIO TITLE "Autumn Rain" PERFORMER "Ahmad Jamal" INDEX 01 00:00:00FILE "02 Blue Moon.wav" WAVE TRACK 02 AUDIO TITLE "Blue Moon" PERFORMER "Ahmad Jamal" INDEX 01 00:00:00FILE "03 Gypsy.wav" WAVE TRACK 03 AUDIO TITLE "Gypsy" PERFORMER "Ahmad Jamal" INDEX 01 00:00:00FILE "04 Invitation.wav" WAVE TRACK 04 AUDIO TITLE "Invitation" PERFORMER "Ahmad Jamal" INDEX 01 00:00:00FILE "05 I Remember Italy.wav" WAVE TRACK 05 AUDIO TITLE "I Remember Italy" PERFORMER "Ahmad Jamal" INDEX 01 00:00:00FILE "06 Laura.wav" WAVE TRACK 06 AUDIO TITLE "Laura" PERFORMER "Ahmad Jamal" INDEX 01 00:00:00FILE "07 Morning Mist.wav" WAVE TRACK 07 AUDIO TITLE "Morning Mist" PERFORMER "Ahmad Jamal" INDEX 01 00:00:00FILE "08 This is the Life.wav" WAVE TRACK 08 AUDIO TITLE "This is the Life" PERFORMER "Ahmad Jamal" INDEX 01 00:00:00FILE "09 Woody'n You.wav" WAVE TRACK 09 AUDIO TITLE "Woody'n You" PERFORMER "Ahmad Jamal" INDEX 01 00:00:00
 
AUDIOCHECKER v2.0 beta (build 457) - by Dester - opdester@freemail.hu~~~~~~~~~~~~~~~~~~~~~~~~~~~~~~~~~~

Started at: четверг, 16. 02. 2012. - 16:28.239 files found

1 -===- L:\rutracker.org_Audio CD\#_021_Ahmad Jamal - Blue Moon (2012)\Ahmad Jamal - Blue Moon (2012)\01 Autumn Rain.flac Extracted successfully Conclusion: this track is CDDA with probability 100% Tempfile successfully deleted.

2 -===- L:\rutracker.org_Audio CD\#_021_Ahmad Jamal - Blue Moon (2012)\Ahmad Jamal - Blue Moon (2012)\02 Blue Moon.flac Extracted successfully Conclusion: this track is CDDA with probability 100% Tempfile successfully deleted.

3 -===- L:\rutracker.org_Audio CD\#_021_Ahmad Jamal - Blue Moon (2012)\Ahmad Jamal - Blue Moon (2012)\03 Gypsy.flac Extracted successfully Conclusion: this track is CDDA with probability 100% Tempfile successfully deleted.

4 -===- L:\rutracker.org_Audio CD\#_021_Ahmad Jamal - Blue Moon (2012)\Ahmad Jamal - Blue Moon (2012)\04 Invitation.flac Extracted successfully Conclusion: this track is CDDA with probability 100% Tempfile successfully deleted.

5 -===- L:\rutracker.org_Audio CD\#_021_Ahmad Jamal - Blue Moon (2012)\Ahmad Jamal - Blue Moon (2012)\05 I Remember Italy.flac Extracted successfully Conclusion: this track is CDDA with probability 100% Tempfile successfully deleted.

6 -===- L:\rutracker.org_Audio CD\#_021_Ahmad Jamal - Blue Moon (2012)\Ahmad Jamal - Blue Moon (2012)\06 Laura.flac Extracted successfully Conclusion: this track is CDDA with probability 100% Tempfile successfully deleted.

7 -===- L:\rutracker.org_Audio CD\#_021_Ahmad Jamal - Blue Moon (2012)\Ahmad Jamal - Blue Moon (2012)\07 Morning Mist.flac Extracted successfully Conclusion: this track is CDDA with probability 100% Tempfile successfully deleted.

8 -===- L:\rutracker.org_Audio CD\#_021_Ahmad Jamal - Blue Moon (2012)\Ahmad Jamal - Blue Moon (2012)\08 This is the Life.flac Extracted successfully Conclusion: this track is CDDA with probability 100% Tempfile successfully deleted.

9 -===- L:\rutracker.org_Audio CD\#_021_Ahmad Jamal - Blue Moon (2012)\Ahmad Jamal - Blue Moon (2012)\09 Woody'n You.flac Extracted successfully Conclusion: this track is CDDA with probability 100% Tempfile successfully deleted.

Finished at: четверг, 16. 02. 2012. - 16:36.30 (operation time: 0:08.07)


Трекер:  [ 21-Фев-2012 12:05 ]

  

Скачать .torrent

Размер .torrent файла 20 KB


Размер: 470 MB
Хэш (hash) релиза: 0dd84e00af00198c5dcc5f529cb8e0283ae86699

Еще никто не оставлял запись к записи скачать торрент Ahmad Jamal . Будь первым!

!Обратная связь