Скачать через торрент музыку Bobby Watson & Horizon - No Question About It - 1988, FLAC бесплатно без регистрации torrent

Если у вас наблюдаются проблемы со скриншотами, переходом по ссылками, скачиванием торрентов - проблемы в блокировщике рекламы AdBlock. #хорошегоДня!


Статистика раздачи
Размер:  263 MB   |    Зарегистрирован:  5 лет 7 месяцев   |    .torrent скачан:  31 раз   |   
Раздают:  1  
   
Загрузка...
 
Автор Сообщение

Umakiro

avatar Umakiro


Bobby Watson & Horizon - No Question About It

Жанр: Hard Bop, Post-Bop, Saxophone Jazz
Страна-производитель диска: USA
Год издания диска: 1988
Издатель (лейбл): Blue Note
Номер по каталогу: CDP 7 90262 2
Страна: US Lawrence, KS
Аудиокодек: FLAC (*.flac)
Тип рипа: tracks+.cue
Битрейт аудио: lossless
Продолжительность: 00:44:03
Источник (релизер): сеть
Наличие сканов в содержимом раздачи: да
01. Country Corn Flakes [06:23]
02. Forty Acres And A Mule [05:41]
03. What Can I Do For You [07:19]
04. Blood Count [04:12]
05. No Question About It [04:51]
06. Moonrise [08:25]
07. And Then Again [07:09]
 
Exact Audio Copy V1.0 beta 1 from 15. November 2010

EAC extraction logfile from 3. July 2011, 0:48

Bobby Watson / No Question About It

Used drive : TSSTcorpCDDVDW SH-S203N Adapter: 0 ID: 2

Read mode : SecureUtilize accurate stream : YesDefeat audio cache : YesMake use of C2 pointers : No

Read offset correction : 6Overread into Lead-In and Lead-Out : NoFill up missing offset samples with silence : YesDelete leading and trailing silent blocks : NoNull samples used in CRC calculations : YesUsed interface : Installed external ASPI interfaceGap handling : Appended to previous track

Used output format : User Defined EncoderSelected bitrate : 768 kBit/sQuality : HighAdd ID3 tag : NoCommand line compressor : C:\Program Files\Exact Audio Copy-NEW\Flac\flac.exeAdditional command line options : -8 -V -T "ARTIST=%a" -T "TITLE=%t" -T "ALBUM=%g" -T "DATE=%y" -T "TRACKNUMBER=%n" -T "TOTALTRACKS=%x" -T "GENRE=%m" -T "ALBUMARTIST=%v" -T "ALBUM ARTIST=%v" -T "COMMENT=EAC V1.01b1, Secure Mode, Test & Copy, AccurateRip, FL

TOC of the extracted CD

Track | Start | Length | Start sector | End sector --------------------------------------------------------- 1 | 0:00.00 | 6:24.55 | 0 | 28854 2 | 6:24.55 | 5:43.00 | 28855 | 54579 3 | 12:07.55 | 7:22.30 | 54580 | 87759 4 | 19:30.10 | 4:13.27 | 87760 | 106761 5 | 23:43.37 | 4:52.53 | 106762 | 128714 6 | 28:36.15 | 8:26.62 | 128715 | 166726 7 | 37:03.02 | 7:09.18 | 166727 | 198919

Track 1

Filename J:\New Rips\Bobby Watson - No Question About It (1988) [FLAC]\01 - Country Corn Flakes.wav

Pre-gap length 0:00:02.00

Peak level 97.5 % Extraction speed 5.2 X Track quality 100.0 % Test CRC 0ED42CFF Copy CRC 0ED42CFF Accurately ripped (confidence 5) [11DAC770] Copy OK

Track 2

Filename J:\New Rips\Bobby Watson - No Question About It (1988) [FLAC]\02 - Forty Acres And A Mule.wav

Pre-gap length 0:00:01.05

Peak level 85.2 % Extraction speed 5.0 X Track quality 99.9 % Test CRC D5C46F74 Copy CRC D5C46F74 Accurately ripped (confidence 4) [7AA7C391] Copy OK

Track 3

Filename J:\New Rips\Bobby Watson - No Question About It (1988) [FLAC]\03 - What Can I Do For You.wav

Pre-gap length 0:00:01.20

Peak level 94.5 % Extraction speed 6.7 X Track quality 100.0 % Test CRC 720041C9 Copy CRC 720041C9 Accurately ripped (confidence 4) [44894E88] Copy OK

Track 4

Filename J:\New Rips\Bobby Watson - No Question About It (1988) [FLAC]\04 - Blood Count.wav

Pre-gap length 0:00:02.65

Peak level 71.3 % Extraction speed 5.5 X Track quality 99.9 % Test CRC 2EB083A3 Copy CRC 2EB083A3 Accurately ripped (confidence 4) [4503F987] Copy OK

Track 5

Filename J:\New Rips\Bobby Watson - No Question About It (1988) [FLAC]\05 - No Question About It.wav

Pre-gap length 0:00:01.27

Peak level 97.3 % Extraction speed 7.4 X Track quality 100.0 % Test CRC 7E61B7FE Copy CRC 7E61B7FE Accurately ripped (confidence 4) [670AD8C3] Copy OK

Track 6

Filename J:\New Rips\Bobby Watson - No Question About It (1988) [FLAC]\06 - Moonrise.wav

Pre-gap length 0:00:00.60

Peak level 86.2 % Extraction speed 8.3 X Track quality 100.0 % Test CRC BE53EBC9 Copy CRC BE53EBC9 Accurately ripped (confidence 4) [86E8E7F4] Copy OK

Track 7

Filename J:\New Rips\Bobby Watson - No Question About It (1988) [FLAC]\07 - And Then Again.wav

Pre-gap length 0:00:01.60

Peak level 89.8 % Extraction speed 8.8 X Track quality 100.0 % Test CRC 465EFFA6 Copy CRC 465EFFA6 Accurately ripped (confidence 4) [39D4389B] Copy OK

All tracks accurately ripped

No errors occurred

End of status report

==== Log checksum D0FA3D8C2398399D78760CF35D5B8EE359F35D154EBB18B8D065F2654CB3E7B9 ====
 
REM GENRE JazzREM DATE 1988REM DISCID 580A5C07REM COMMENT "ExactAudioCopy v1.0b1"PERFORMER "Bobby Watson"TITLE "No Question About It"FILE "01 - Country Corn Flakes.flac" WAVE TRACK 01 AUDIO TITLE "Country Corn Flakes" PERFORMER "Bobby Watson" INDEX 01 00:00:00 TRACK 02 AUDIO TITLE "Forty Acres And A Mule" PERFORMER "Bobby Watson" INDEX 00 06:23:50FILE "02 - Forty Acres And A Mule.flac" WAVE INDEX 01 00:00:00 TRACK 03 AUDIO TITLE "What Can I Do For You" PERFORMER "Bobby Watson" INDEX 00 05:41:55FILE "03 - What Can I Do For You.flac" WAVE INDEX 01 00:00:00 TRACK 04 AUDIO TITLE "Blood Count" PERFORMER "Bobby Watson" INDEX 00 07:19:40FILE "04 - Blood Count.flac" WAVE INDEX 01 00:00:00 TRACK 05 AUDIO TITLE "No Question About It" PERFORMER "Bobby Watson" INDEX 00 04:12:00FILE "05 - No Question About It.flac" WAVE INDEX 01 00:00:00 TRACK 06 AUDIO TITLE "Moonrise" PERFORMER "Bobby Watson" INDEX 00 04:51:68FILE "06 - Moonrise.flac" WAVE INDEX 01 00:00:00 TRACK 07 AUDIO TITLE "And Then Again" PERFORMER "Bobby Watson" INDEX 00 08:25:02FILE "07 - And Then Again.flac" WAVE INDEX 01 00:00:00
 
-----------------------

DON'T MODIFY THIS FILE

-----------------------

PERFORMER: auCDtect Task Manager, ver. 1.5.1RC6 build 1.5.1.7Copyright (c) 2008-2010 y-soft. All rights reservedhttp://y-soft.org

ANALYZER: auCDtect: CD records authenticity detector, version 0.8.2Copyright (c) 2004 Oleg Berngardt. All rights reserved.Copyright (c) 2004 Alexander Djourik. All rights reserved.

FILE: 07 - And Then Again.flac Size: 42789184 Hash: 4117EAFF90849B78DE791641BEE3CBBD Accuracy: -m0 Conclusion: CDDA 100% Signature: CAA0AD6ED25FB5DCB17E9786B76F1BA3ACB535DCFILE: 06 - Moonrise.flac Size: 52043015 Hash: E4413CC8287301B496B9F2538A5D1434 Accuracy: -m0 Conclusion: CDDA 99% Signature: 1AF92539A889FE8EB701427E389587788C0FBB6CFILE: 05 - No Question About It.flac Size: 31123967 Hash: 3E62E1A5661333B8D99BE2CA2B11FEF7 Accuracy: -m0 Conclusion: CDDA 100% Signature: 46214E1BC89178D6CD62375DBA8F11E8C50CADF1FILE: 04 - Blood Count.flac Size: 23682908 Hash: D33C224FE7D54842AACA6932585F6F3B Accuracy: -m0 Conclusion: CDDA 100% Signature: EAB53C831EB02C6CF264BE4765913B38B4A6EE1FFILE: 03 - What Can I Do For You.flac Size: 47026916 Hash: C4D70E4F949F55680576A2597BFAE104 Accuracy: -m0 Conclusion: CDDA 99% Signature: B4183787D6EBEFF8BF49F66D9958C9B9A03E6ED6FILE: 02 - Forty Acres And A Mule.flac Size: 35305976 Hash: BB82C9E862BC52C48B6AAD3FB7272DF0 Accuracy: -m0 Conclusion: CDDA 100% Signature: D39D48109AE961B5665A4B647CCD4A352222BEE1FILE: 01 - Country Corn Flakes.flac Size: 40150536 Hash: FE83F7ED90073EB20421E8EE151BEC84 Accuracy: -m0 Conclusion: CDDA 99% Signature: 30C938365F3267A941229946DC66B3AB6214D5F5
Saxophone - Bobby Watson
Trumpet - Roy Hargrove
Trombone - Frank Lacy
Piano John - Hicks
Drums Victor - Lewis
Drums - Kenny Washington
Bass Curtis - Lundy


Трекер:  [ 21-Фев-2012 12:04 ]

  

Скачать .torrent

Размер .torrent файла 12 KB


Размер: 263 MB
Хэш (hash) релиза: 892686483e68ee98d5e001b64defbd2734f20ae5

Еще никто не оставлял запись к записи скачать торрент Bobby Watson & Horizon - No Question About It - 1988, FLAC . Будь первым!

!Обратная связь