Скачать через торрент музыку Michel Petrucciani — Marvellous — 1994, FLAC бесплатно без регистрации torrent

Если у вас наблюдаются проблемы со скриншотами, переходом по ссылками, скачиванием торрентов - проблемы в блокировщике рекламы AdBlock. #хорошегоДня!


Статистика раздачи
Размер:  251 MB   |    Зарегистрирован:  5 лет 8 месяцев   |    .torrent скачан:  28 раз   |   
Раздают:  1  
   
Загрузка...
 
Автор Сообщение

Umakiro

avatar Umakiro


Michel Petrucciani — Marvellous

Жанр: Mainstream Jazz
Год выпуска диска: 1994
Производитель диска: Dreyfus Resords
Аудио кодек: FLAC
Тип рипа: image+.cue
Битрейт аудио: lossless
Продолжительность: 45:32

Треклист:
01. Manhattan (4:51)
02. Charlie Brown (2:47)
03. Even Mice Dance (4:40)
04. Why (5:53)
05. Hidden Joy (6:22)
06. Shooting Stars (5:30)
07. You Are My Waltz (4:13)
08. Dumb Breaks (2:42)
09. 92's last (5:19)
10. Besame Mucho (3:15)
 
Exact Audio Copy V0.99 prebeta 3 from 28. July 2007

EAC extraction logfile from 18. May 2008, 12:16

Michel Petrucciani / Marvellous

Used drive : LITE-ON LTR-52246S Adapter: 1 ID: 0

Read mode : SecureUtilize accurate stream : YesDefeat audio cache : YesMake use of C2 pointers : No

Read offset correction : 6Overread into Lead-In and Lead-Out : NoFill up missing offset samples with silence : YesDelete leading and trailing silent blocks : NoNull samples used in CRC calculations : NoUsed interface : Installed external ASPI interface

Used output format : Internal WAV RoutinesSample format : 44.100 Hz; 16 Bit; Stereo

TOC of the extracted CD

Track | Start | Length | Start sector | End sector --------------------------------------------------------- 1 | 0:00.32 | 4:51.30 | 32 | 21886 2 | 4:51.62 | 2:47.08 | 21887 | 34419 3 | 7:38.70 | 4:39.50 | 34420 | 55394 4 | 12:18.45 | 5:52.45 | 55395 | 81839 5 | 18:11.15 | 6:21.70 | 81840 | 110484 6 | 24:33.10 | 5:30.30 | 110485 | 135264 7 | 30:03.40 | 4:13.25 | 135265 | 154264 8 | 34:16.65 | 2:42.12 | 154265 | 166426 9 | 36:59.02 | 5:19.03 | 166427 | 190354 10 | 42:18.05 | 3:14.52 | 190355 | 204956

Range status and errors

Selected range

Filename J:\MMT\Michel Petrucciani - Marvellous.wav

Peak level 100.0 % Range quality 100.0 % Copy CRC 2973CBAF Copy OK

No errors occurred

AccurateRip summary

Track 1 accurately ripped (confidence 3) [F83C16A3]Track 2 accurately ripped (confidence 3) [792C76D3]Track 3 accurately ripped (confidence 3) [2B1E721A]Track 4 accurately ripped (confidence 3) [44526736]Track 5 accurately ripped (confidence 3) [B79C649E]Track 6 accurately ripped (confidence 3) [B8B2D5B9]Track 7 accurately ripped (confidence 3) [0022FCBB]Track 8 accurately ripped (confidence 3) [03616A6C]Track 9 accurately ripped (confidence 3) [96331F73]Track 10 accurately ripped (confidence 2) [45524778]

All tracks accurately ripped

End of status report


Трекер:  [ 21-Фев-2012 12:03 ]

  

Скачать .torrent

Размер .torrent файла 3 KB


Размер: 251 MB
Хэш (hash) релиза: dadb3e3e7cbdff39f23c23bea4befe457b3222c1

Еще никто не оставлял запись к записи скачать торрент Michel Petrucciani — Marvellous — 1994, FLAC . Будь первым!

!Обратная связь