Скачать через торрент музыку The Jonah Jones Quartet - Swingin On Broadway - 1957, FLAC бесплатно без регистрации torrent

Если у вас наблюдаются проблемы со скриншотами, переходом по ссылками, скачиванием торрентов - проблемы в блокировщике рекламы AdBlock. #хорошегоДня!


Статистика раздачи
Размер:  190 MB   |    Зарегистрирован:  5 лет 8 месяцев   |    .torrent скачан:  29 раз   |   
Раздают:  1  
   
Загрузка...
 
Автор Сообщение

Umakiro

avatar Umakiro


The Jonah Jones Quartet - Swingin' On Broadway - 1957

Жанр: Dixieland, Swing
Страна исполнителя: U.S.A.
Год издания оригинала: 1957
Год переиздания: 2011
Страна - производитель диска: Japan
Издатель (лейбл): EMI Music Japan Inc.
Номер по каталогу: TOCJ-50105
Тип: Reissue

Аудио кодек: FLAC (*.flac)
Тип рипа: (tracks + .cue)
Битрейт аудио: lossless
Наличие сканов в содержимом раздачи: full scans, png, 300 dpi
Продолжительность: 27:40
Источник (релизер): коллекция Л Рендера, мой рип

Трэклист:

1. BAUBLES, BANGLES AND BEADS
from "Kismet" (R.Wright-G.Forrest) 2:11

2. THE PARTY'S OVER
from "Bells Are Ringing" (B.Comden-A.Green-J.Styne) 2:33

3. YOU'RE SO RIGHT FOR ME
from "Oh, Captain!" (R.Evans-J.Livingston) 1:57

4. JUST MY LUCK
from "The Body Beautiful" (S.Harnick-J.Bock) 2:47

5. THE SURREY WITH THE FRINGE ON TOP
from "Oklahoma!" (O.Hammerstein ll-R.Rodgers) 1:51

6. YOU'RE JUST IN LOVE
from "Call Me Madam" (Irving Berlin) 2:31

7. JUST IN TIME
from "Bells Are Ringing" (B.Comden-A.Green-J.Styne) 1:53

8. HEY THERE
from "The Pajama Game" (R.Adler-J.Ross) 2:39

9. I COULD HAVE DANCED ALL NIGHT
from "My Fair Lady" (A.J.Lerner-F.Loewe) 2:24

10. WHATEVER LOLA WANTS
from "Damn Yankees" (R.Adler-J.Ross) 2:07

11. TILL THERE WAS YOU
from "The Music Man" (Meredith Willson) 2:01

12. SEVENTY-SIX TROMBONES
from "The Music Man" (Meredith Willson) 2:16

Состав:
JONAH JONES - vocal, trumpet
GEORGE RHODES - piano
JOHN BROWN - bass
HAROLD AUSTIN - drums

Издания:
1957 - Vinyl LP Capitol T-963
Trumpeter Jonah Jones was a hot property in late 1957 due to his hit rendition of "On the Street Where You Live." This follow-up LP had an equally big hit in "Baubles, Bangles and Beads," making Jones a household name for a decade. With shuffling support from pianist George Rhodes, bassist John Brown and drummer Harold Austin, Jones was able to make a lucrative living playing and singing music that did not differ much from what he would have been performing anyway. Other highlights of the LP (which consists of 12 songs from plays) include "The Surrey With the Fringe On Top," "Just In Time" and "I Could Have Danced All Night."
 
REM GENRE JazzREM DATE 1957REM DISCID 8C067D0CREM COMMENT "ExactAudioCopy v1.0b2"PERFORMER "The Jonah Jones Quartet"TITLE "Swingin' On Broadway"FILE "01 - Baubles, Bangles And Beads.wav" WAVE TRACK 01 AUDIO TITLE "Baubles, Bangles And Beads" PERFORMER "The Jonah Jones Quartet" ISRC USCA29901477 INDEX 01 00:00:00 TRACK 02 AUDIO TITLE "The Party's Over" PERFORMER "The Jonah Jones Quartet" ISRC USCA21100123 INDEX 00 02:11:31FILE "02 - The Party's Over.wav" WAVE INDEX 01 00:00:00 TRACK 03 AUDIO TITLE "You're So Right For Me" PERFORMER "The Jonah Jones Quartet" ISRC USCA21100137 INDEX 00 02:33:32FILE "03 - You're So Right For Me.wav" WAVE INDEX 01 00:00:00 TRACK 04 AUDIO TITLE "Just My Luck" PERFORMER "The Jonah Jones Quartet" ISRC USCA21100131 INDEX 00 01:57:34FILE "04 - Just My Luck.wav" WAVE INDEX 01 00:00:00 TRACK 05 AUDIO TITLE "The Surrey With The Fringe On Top" PERFORMER "The Jonah Jones Quartet" ISRC USCA20902447 INDEX 00 02:47:07FILE "05 - The Surrey With The Fringe On Top.wav" WAVE INDEX 01 00:00:00 TRACK 06 AUDIO TITLE "You're Just In Love" PERFORMER "The Jonah Jones Quartet" ISRC USCA29901472 INDEX 00 01:51:11FILE "06 - You're Just In Love.wav" WAVE INDEX 01 00:00:00 TRACK 07 AUDIO TITLE "Just In Time" PERFORMER "The Jonah Jones Quartet" ISRC USCA21100132 INDEX 00 02:31:03FILE "07 - Just In Time.wav" WAVE INDEX 01 00:00:00 TRACK 08 AUDIO TITLE "Hey There" PERFORMER "The Jonah Jones Quartet" ISRC USCA21100133 INDEX 00 01:53:24FILE "08 - Hey There.wav" WAVE INDEX 01 00:00:00 TRACK 09 AUDIO TITLE "I Could Have Danced All Night" PERFORMER "The Jonah Jones Quartet" ISRC USCA21100134 INDEX 00 02:39:48FILE "09 - I Could Have Danced All Night.wav" WAVE INDEX 01 00:00:00 TRACK 10 AUDIO TITLE "Whatever Lola Wants" PERFORMER "The Jonah Jones Quartet" ISRC USCA21100135 INDEX 00 02:24:73FILE "10 - Whatever Lola Wants.wav" WAVE INDEX 01 00:00:00 TRACK 11 AUDIO TITLE "Till There Was You" PERFORMER "The Jonah Jones Quartet" ISRC USCA20902439 INDEX 00 02:07:34FILE "11 - Till There Was You.wav" WAVE INDEX 01 00:00:00 TRACK 12 AUDIO TITLE "Seventy-Six Trombones" PERFORMER "The Jonah Jones Quartet" ISRC USCA20902433 INDEX 00 02:01:23FILE "12 - Seventy-Six Trombones.wav" WAVE INDEX 01 00:00:00
 
Exact Audio Copy V1.0 beta 2 from 29. April 2011

EAC extraction logfile from 18. December 2011, 8:02

The Jonah Jones Quartet / Swingin' On Broadway

Used drive : HL-DT-STDVD-RAM GH22NP20 Adapter: 0 ID: 0

Read mode : SecureUtilize accurate stream : YesDefeat audio cache : YesMake use of C2 pointers : No

Read offset correction : 102Overread into Lead-In and Lead-Out : NoFill up missing offset samples with silence : YesDelete leading and trailing silent blocks : NoNull samples used in CRC calculations : YesUsed interface : Native Win32 interface for Win NT & 2000Gap handling : Appended to previous track

Used output format : User Defined EncoderSelected bitrate : 1024 kBit/sQuality : HighAdd ID3 tag : NoCommand line compressor : C:\Program Files\Exact Audio Copy\Flac\flac.exeAdditional command line options : -8 -V -T "ARTIST=%artist%" -T "TITLE=%title%" -T "ALBUM=%albumtitle%" -T "DATE=%year%" -T "TRACKNUMBER=%tracknr%" -T "GENRE=%genre%" -T "PERFORMER=%albuminterpret%" -T "COMMENT=EAC V1.0 beta 2, Secure Mode, Test & Copy, Acc

TOC of the extracted CD

Track | Start | Length | Start sector | End sector --------------------------------------------------------- 1 | 0:00.00 | 2:13.59 | 0 | 10033 2 | 2:13.59 | 2:35.60 | 10034 | 21718 3 | 4:49.44 | 1:59.62 | 21719 | 30705 4 | 6:49.31 | 2:49.35 | 30706 | 43415 5 | 9:38.66 | 1:53.39 | 43416 | 51929 6 | 11:32.30 | 2:33.31 | 51930 | 63435 7 | 14:05.61 | 1:55.53 | 63436 | 72113 8 | 16:01.39 | 2:42.01 | 72114 | 84264 9 | 18:43.40 | 2:27.26 | 84265 | 95315 10 | 21:10.66 | 2:09.62 | 95316 | 105052 11 | 23:20.53 | 2:03.51 | 105053 | 114328 12 | 25:24.29 | 2:16.66 | 114329 | 124594

Track 1

Filename D:\music\Musicgate's rips\The Jonah Jones Quartet - Swingin' On Broadway - 1957 (2011, Japan)\01 - Baubles, Bangles And Beads.wav

Pre-gap length 0:00:02.00

Peak level 98.6 % Extraction speed 1.1 X Track quality 99.9 % Test CRC 8C0BB663 Copy CRC 8C0BB663 Accurately ripped (confidence 2) [B5E2FE3D] (AR v1) Copy OK

Track 2

Filename D:\music\Musicgate's rips\The Jonah Jones Quartet - Swingin' On Broadway - 1957 (2011, Japan)\02 - The Party's Over.wav

Pre-gap length 0:00:02.37

Peak level 98.7 % Extraction speed 1.5 X Track quality 100.0 % Test CRC F69C5F40 Copy CRC F69C5F40 Accurately ripped (confidence 2) [DB6A3DB3] (AR v1) Copy OK

Track 3

Filename D:\music\Musicgate's rips\The Jonah Jones Quartet - Swingin' On Broadway - 1957 (2011, Japan)\03 - You're So Right For Me.wav

Pre-gap length 0:00:02.37

Peak level 98.1 % Extraction speed 1.2 X Track quality 99.9 % Test CRC 49225D5D Copy CRC 49225D5D Accurately ripped (confidence 2) [65ADCF08] (AR v1) Copy OK

Track 4

Filename D:\music\Musicgate's rips\The Jonah Jones Quartet - Swingin' On Broadway - 1957 (2011, Japan)\04 - Just My Luck.wav

Pre-gap length 0:00:02.37

Peak level 93.4 % Extraction speed 1.7 X Track quality 100.0 % Test CRC 3AC3364D Copy CRC 3AC3364D Accurately ripped (confidence 2) [6673AA30] (AR v1) Copy OK

Track 5

Filename D:\music\Musicgate's rips\The Jonah Jones Quartet - Swingin' On Broadway - 1957 (2011, Japan)\05 - The Surrey With The Fringe On Top.wav

Pre-gap length 0:00:02.37

Peak level 97.2 % Extraction speed 1.3 X Track quality 99.9 % Test CRC F9137773 Copy CRC F9137773 Accurately ripped (confidence 2) [A0B869A2] (AR v1) Copy OK

Track 6

Filename D:\music\Musicgate's rips\The Jonah Jones Quartet - Swingin' On Broadway - 1957 (2011, Japan)\06 - You're Just In Love.wav

Pre-gap length 0:00:02.37

Peak level 98.6 % Extraction speed 1.8 X Track quality 100.0 % Test CRC 6EDE2EE8 Copy CRC 6EDE2EE8 Accurately ripped (confidence 2) [533EA3AB] (AR v1) Copy OK

Track 7

Filename D:\music\Musicgate's rips\The Jonah Jones Quartet - Swingin' On Broadway - 1957 (2011, Japan)\07 - Just In Time.wav

Pre-gap length 0:00:02.37

Peak level 99.3 % Extraction speed 1.8 X Track quality 100.0 % Test CRC 7536AC3F Copy CRC 7536AC3F Accurately ripped (confidence 2) [2A8CF22D] (AR v1) Copy OK

Track 8

Filename D:\music\Musicgate's rips\The Jonah Jones Quartet - Swingin' On Broadway - 1957 (2011, Japan)\08 - Hey There.wav

Pre-gap length 0:00:02.38

Peak level 98.5 % Extraction speed 1.7 X Track quality 99.9 % Test CRC 8EC76885 Copy CRC 8EC76885 Accurately ripped (confidence 2) [81477CC7] (AR v1) Copy OK

Track 9

Filename D:\music\Musicgate's rips\The Jonah Jones Quartet - Swingin' On Broadway - 1957 (2011, Japan)\09 - I Could Have Danced All Night.wav

Pre-gap length 0:00:02.37

Peak level 98.9 % Extraction speed 2.1 X Track quality 100.0 % Test CRC 241754CE Copy CRC 241754CE Accurately ripped (confidence 2) [EB40E131] (AR v1) Copy OK

Track 10

Filename D:\music\Musicgate's rips\The Jonah Jones Quartet - Swingin' On Broadway - 1957 (2011, Japan)\10 - Whatever Lola Wants.wav

Pre-gap length 0:00:02.37

Peak level 100.0 % Extraction speed 1.7 X Track quality 99.9 % Test CRC 1D964C2B Copy CRC 1D964C2B Accurately ripped (confidence 2) [FD90BA56] (AR v1) Copy OK

Track 11

Filename D:\music\Musicgate's rips\The Jonah Jones Quartet - Swingin' On Broadway - 1957 (2011, Japan)\11 - Till There Was You.wav

Pre-gap length 0:00:02.37

Peak level 98.3 % Extraction speed 2.1 X Track quality 100.0 % Test CRC 56B492FF Copy CRC 56B492FF Accurately ripped (confidence 2) [5AB32564] (AR v1) Copy OK

Track 12

Filename D:\music\Musicgate's rips\The Jonah Jones Quartet - Swingin' On Broadway - 1957 (2011, Japan)\12 - Seventy-Six Trombones.wav

Pre-gap length 0:00:02.37

Peak level 98.3 % Extraction speed 2.2 X Track quality 100.0 % Test CRC 0783F289 Copy CRC 0783F289 Accurately ripped (confidence 2) [21CB5656] (AR v1) Copy OK

All tracks accurately ripped

No errors occurred

End of status report

==== Log checksum E80C71FDC666888245AEDF391BC82615B299538163C4DD75FB2F4D985766009C ====


Трекер:  [ 20-Фев-2012 17:17 ]

  

Скачать .torrent

Размер .torrent файла 16 KB


Размер: 190 MB
Хэш (hash) релиза: d64c346e3f274e7cd523cbf9f2a29f845cbc0e2f

Еще никто не оставлял запись к записи скачать торрент The Jonah Jones Quartet - Swingin On Broadway - 1957, FLAC . Будь первым!

!Обратная связь