Скачать через торрент музыку Eddie Heywood & The Blues Singers бесплатно без регистрации torrent

Если у вас наблюдаются проблемы со скриншотами, переходом по ссылками, скачиванием торрентов - проблемы в блокировщике рекламы AdBlock. #хорошегоДня!


Статистика раздачи
Размер:  153 MB   |    Зарегистрирован:  5 лет 7 месяцев   |    .torrent скачан:  17 раз   |   
Раздают:  1  
   
Загрузка...
 
Автор Сообщение

Umakiro

avatar Umakiro


Eddie Heywood & The Blues Singers 1923-1926 Document Records

Жанр: blues / piano
Год выпуска диска: 2007
Производитель диска: EU Document Records
Аудио кодек: FLAC
Тип рипа: tracks+.cue
Битрейт аудио: lossless
Продолжительность: 76:12
Источник: демоноид, релизер - knttk
Трэклист:
01. Eddie Heywood Piano Solos - The Black Bottom Blues (2:44)
02. Eddie Heywood Piano Solos - The Mixed Up Blues (2:55)
03. Charles Anderson - Sing 'Em Blues (3:18)
04. Charles Anderson - Yodle Song-Coo Coo (3:27)
05. Charles Anderson - Sleep, Baby, Sleep (3:03)
06. Guilford (Peachtree) Payne - You Don't Worry My Mind (3:08)
07. Guilford (Peachtree) Payne - Peachtree Man Blues (3:22)
08. Charles Anderson - Comic Yodle Song (3:08)
09. Viola Baker - What's The Use Blues (3:09)
10. Sloppy Henry - Tom Cat Rag (2:42)
11. Sloppy Henry - Cannon Ball Blues (3:05)
12. Annie Summerford - 'Fo Day Blues (3:18)
13. Annie Summerford - Low Down Blues (3:17)
14. Catherine Henderson - Sweet De Papa Blues (3:21)
15. Catherine Henderson - Four-Thirty Blues (2:52)
16. Doc Dasher - Evolution Mama (3:19)
17. Doc Dasher - West Palm Beach Blues (3:02)
18. Sloppy Henry - Foggy Morning Blues (2:44)
19. Sloppy Henry - Bobbed Haired Woman Blues (2:51)
20. Sloppy Henry - Traveling Blues (2:39)
21. Sloppy Henry - Goose-Pecked Man (2:28)
22. Sloppy Henry - Alias Charley Jones Blues (3:05)
23. Sloppy Henry - Run Away Blues (3:12)
24. Eddie Heywood & His Jazz Six - Let's Start Over Again (3:02)
25. Eddie Heywood & His Jazz Six - Trombone Moanin' Blues (3:01)
Доп. информация:
EAC extraction logfile from 27. January 2009, 17:46 for CD
Various / Eddie Heywood & The Blues Singers 1923-1926

Used drive : Optiarc DVD RW AD-7590A Adapter: 3 ID: 0
Read mode : Secure with NO C2, accurate stream, disable cache
Read offset correction : 48
Overread into Lead-In and Lead-Out : No

Used output format : C:\Program Files\Exact Audio Copy\Flac\flac.exe (User Defined Encoder)
192 kBit/s
Additional command line options : -8 -A tukey(0.25) -A gauss(0.1875) -b 4096 -V -T "artist=%a" -T "title=%t" -T "album=%g" -T "date=%y" -T "tracknumber=%n" -T "genre=%m" %s --sector-align

Other options :
Fill up missing offset samples with silence : Yes
Delete leading and trailing silent blocks : No
Native Win32 interface for Win NT & 2000

Track 1
Filename D:\flac\Eddie Heywood & The Blues Singers 1923-1926\01 - Eddie Heywood Piano Solos - The Black Bottom Blues.wav

Pre-gap length 0:00:02.00

Peak level 93.4 %
Track quality 99.9 %
Test CRC 573680C7
Copy CRC 573680C7
Copy OK

Track 2
Filename D:\flac\Eddie Heywood & The Blues Singers 1923-1926\02 - Eddie Heywood Piano Solos - The Mixed Up Blues.wav

Peak level 88.9 %
Track quality 100.0 %
Test CRC AB2CBC6E
Copy CRC AB2CBC6E
Copy OK

Track 3
Filename D:\flac\Eddie Heywood & The Blues Singers 1923-1926\03 - Charles Anderson - Sing 'Em Blues.wav

Peak level 88.2 %
Track quality 100.0 %
Test CRC 15461380
Copy CRC 15461380
Copy OK

Track 4
Filename D:\flac\Eddie Heywood & The Blues Singers 1923-1926\04 - Charles Anderson - Yodle Song-Coo Coo.wav

Peak level 82.1 %
Track quality 100.0 %
Test CRC F7C02B25
Copy CRC F7C02B25
Copy OK

Track 5
Filename D:\flac\Eddie Heywood & The Blues Singers 1923-1926\05 - Charles Anderson - Sleep, Baby, Sleep.wav

Peak level 75.5 %
Track quality 99.9 %
Test CRC 6A23010C
Copy CRC 6A23010C
Copy OK

Track 6
Filename D:\flac\Eddie Heywood & The Blues Singers 1923-1926\06 - Guilford (Peachtree) Payne - You Don't Worry My Mind.wav

Peak level 92.7 %
Track quality 99.9 %
Test CRC 35F4219E
Copy CRC 35F4219E
Copy OK

Track 7
Filename D:\flac\Eddie Heywood & The Blues Singers 1923-1926\07 - Guilford (Peachtree) Payne - Peachtree Man Blues.wav

Peak level 93.0 %
Track quality 100.0 %
Test CRC 411A8E39
Copy CRC 411A8E39
Copy OK

Track 8
Filename D:\flac\Eddie Heywood & The Blues Singers 1923-1926\08 - Charles Anderson - Comic Yodle Song.wav

Peak level 79.0 %
Track quality 100.0 %
Test CRC FC04AC37
Copy CRC FC04AC37
Copy OK

Track 9
Filename D:\flac\Eddie Heywood & The Blues Singers 1923-1926\09 - Viola Baker - What's The Use Blues.wav

Peak level 94.1 %
Track quality 99.9 %
Test CRC 99FF7CEA
Copy CRC 99FF7CEA
Copy OK

Track 10
Filename D:\flac\Eddie Heywood & The Blues Singers 1923-1926\10 - Sloppy Henry - Tom Cat Rag.wav

Peak level 93.9 %
Track quality 100.0 %
Test CRC 0E4EC336
Copy CRC 0E4EC336
Copy OK

Track 11
Filename D:\flac\Eddie Heywood & The Blues Singers 1923-1926\11 - Sloppy Henry - Cannon Ball Blues.wav

Peak level 94.6 %
Track quality 100.0 %
Test CRC 7CE9851F
Copy CRC 7CE9851F
Copy OK

Track 12
Filename D:\flac\Eddie Heywood & The Blues Singers 1923-1926\12 - Annie Summerford - 'Fo Day Blues.wav

Peak level 89.9 %
Track quality 100.0 %
Test CRC 2594170C
Copy CRC 2594170C
Copy OK

Track 13
Filename D:\flac\Eddie Heywood & The Blues Singers 1923-1926\13 - Annie Summerford - Low Down Blues.wav

Peak level 85.2 %
Track quality 100.0 %
Test CRC 2BF3062D
Copy CRC 2BF3062D
Copy OK

Track 14
Filename D:\flac\Eddie Heywood & The Blues Singers 1923-1926\14 - Catherine Henderson -.wav

Peak level 92.0 %
Track quality 100.0 %
Test CRC E83E1462
Copy CRC E83E1462
Copy OK

Track 15
Filename D:\flac\Eddie Heywood & The Blues Singers 1923-1926\15 - Catherine Henderson - Sweet De Papa Blues.wav

Peak level 90.0 %
Track quality 100.0 %
Test CRC D98F6220
Copy CRC D98F6220
Copy OK

Track 16
Filename D:\flac\Eddie Heywood & The Blues Singers 1923-1926\16 - Catherine Henderson - Four-Thirty Blues.wav

Peak level 93.9 %
Track quality 100.0 %
Test CRC 3488B09B
Copy CRC 3488B09B
Copy OK

Track 17
Filename D:\flac\Eddie Heywood & The Blues Singers 1923-1926\17 - Doc Dasher - Evolution Mama.wav

Peak level 83.3 %
Track quality 100.0 %
Test CRC 048BCAD9
Copy CRC 048BCAD9
Copy OK

Track 18
Filename D:\flac\Eddie Heywood & The Blues Singers 1923-1926\18 - Doc Dasher - West Palm Beach Blues.wav

Peak level 94.8 %
Track quality 100.0 %
Test CRC 124D6426
Copy CRC 124D6426
Copy OK

Track 19
Filename D:\flac\Eddie Heywood & The Blues Singers 1923-1926\19 - Sloppy Henry - Foggy Morning Blues.wav

Peak level 93.7 %
Track quality 100.0 %
Test CRC AB3FD2FB
Copy CRC AB3FD2FB
Copy OK

Track 20
Filename D:\flac\Eddie Heywood & The Blues Singers 1923-1926\20 - Sloppy Henry - Bobbed Haired Woman Blues.wav

Peak level 83.0 %
Track quality 100.0 %
Test CRC 706A7D32
Copy CRC 706A7D32
Copy OK

Track 21
Filename D:\flac\Eddie Heywood & The Blues Singers 1923-1926\21 - Sloppy Henry - Traveling Blues.wav

Peak level 93.7 %
Track quality 100.0 %
Test CRC E3F3EC52
Copy CRC E3F3EC52
Copy OK

Track 22
Filename D:\flac\Eddie Heywood & The Blues Singers 1923-1926\22 - Sloppy Henry - Goose-Pecked Man.wav

Peak level 93.6 %
Track quality 99.9 %
Test CRC A3358D8B
Copy CRC A3358D8B
Copy OK

Track 23
Filename D:\flac\Eddie Heywood & The Blues Singers 1923-1926\23 - Sloppy Henry - Alias Charley Jones Blues.wav

Peak level 94.2 %
Track quality 99.9 %
Test CRC FA996B9A
Copy CRC FA996B9A
Copy OK

Track 24
Filename D:\flac\Eddie Heywood & The Blues Singers 1923-1926\24 - Sloppy Henry - Run Away Blues.wav

Peak level 70.7 %
Track quality 100.0 %
Test CRC 167F7C38
Copy CRC 167F7C38
Copy OK

Track 25
Filename D:\flac\Eddie Heywood & The Blues Singers 1923-1926\25 - Eddie Heywood & His Jazz Six - Let's Start Over Again.wav

Peak level 56.0 %
Track quality 100.0 %
Test CRC 2990C420
Copy CRC 2990C420
Copy OK

No errors occured

End of status report
-----------------------

DON'T MODIFY THIS FILE

-----------------------

PERFORMER: auCDtect Task Manager, ver. 0.9.9 RC9 build 0.9.9.9
Copyright (c) 2008, 2009 y-soft. All rights reserved

ANALYZER: auCDtect: CD records authenticity detector, version 0.8.2
Copyright (c) 2004 Oleg Berngardt. All rights reserved.
Copyright (c) 2004 Alexander Djourik. All rights reserved.

FILE: 01 - Eddie Heywood Piano Solos - The Black Bottom Blues.flac
Size: 5503377 Hash: ED1A5469223A7164E7E40562421A0091 Accuracy: -m8
Conclusion: CDDA 49%
Signature: 54981CEDB486CD0F93A0102EB85B471BB19D2C92
FILE: 02 - Eddie Heywood Piano Solos - The Mixed Up Blues.flac
Size: 6076599 Hash: 4B4C553B2A5145ECC492FEBA3FE98890 Accuracy: -m8
Conclusion: MPEG 91%
Signature: 03897E1D9600F30E5081EBBF7FA41250398251BF
FILE: 03 - Charles Anderson - Sing 'Em Blues.flac
Size: 6472637 Hash: 70A8E77BAEF05F9336065F2ECFB6735D Accuracy: -m8
Conclusion: MPEG 93%
Signature: 5BEDBA999A381879DF2236F2AA9DB8F1FCF3AEE7
FILE: 04 - Charles Anderson - Yodle Song-Coo Coo.flac
Size: 7829375 Hash: 062B5D945553E17C06DD15D25A240F28 Accuracy: -m8
Conclusion: MPEG 100%
Signature: 5C559838F91B38D91B12CE869B72CF745EA36849
FILE: 05 - Charles Anderson - Sleep, Baby, Sleep.flac
Size: 6666207 Hash: 62C8E52FA78DE28E3463034DD1246FFC Accuracy: -m8
Conclusion: MPEG 100%
Signature: 8E28565460ABEADCB058DAF6D44E4CD6D07A479B
FILE: 06 - Guilford (Peachtree) Payne - You Don't Worry My Mind.flac
Size: 6834861 Hash: 1A850FFBBA6DA3F68923ABFF5C0B320D Accuracy: -m8
Conclusion: CDDA 58%
Signature: F49564A7F9BDEE0D6647F4535BB46F80C5EC57D5
FILE: 07 - Guilford (Peachtree) Payne - Peachtree Man Blues.flac
Size: 6971622 Hash: 44FE5EFD13FC876ED3A01E85CBC5E03C Accuracy: -m8
Conclusion: CDDA 100%
Signature: F79122C1A70AA4180290CD118251B536E44A1DC7
FILE: 08 - Charles Anderson - Comic Yodle Song.flac
Size: 6067515 Hash: 38796B5198126218257E32421EA9CC6A Accuracy: -m8
Conclusion: MPEG 100%
Signature: DD15CC06ECE00CE66CEFB5075940DFDD38F53181
FILE: 09 - Viola Baker - What's The Use Blues.flac
Size: 6428966 Hash: 547E6E306E63CEAE9D7597DB3136E728 Accuracy: -m8
Conclusion: CDDA 100%
Signature: 39DA9AF04C475FD5DCC272F0882E3409055D7E41
FILE: 10 - Sloppy Henry - Tom Cat Rag.flac
Size: 6117958 Hash: 64F48FAF37FF2DAF42B4FEB5BB0A4596 Accuracy: -m8
Conclusion: CDDA 54%
Signature: A8193CE710A7B7003B9CFC413A3D4E956B2CDB96
FILE: 11 - Sloppy Henry - Cannon Ball Blues.flac
Size: 6982042 Hash: 665982C246DFCEDE74D030E46FA64B4C Accuracy: -m8
Conclusion: CDDA 92%
Signature: 4F835AC59B1F87F5FF11B681DF54692E90AAE989
FILE: 12 - Annie Summerford - 'Fo Day Blues.flac
Size: 6503152 Hash: 8A52875E730953098208729D7AE375FF Accuracy: -m8
Conclusion: MPEG 92%
Signature: 4E8297EB27C03A2983106FB74788D3704815B744
FILE: 13 - Annie Summerford - Low Down Blues.flac
Size: 6140396 Hash: 12D8BCA30CAA0DF0908E8018CB871B87 Accuracy: -m8
Conclusion: MPEG 100%
Signature: 96D25B99E732FBC4AE64124838CDC80FBA40814F
FILE: 14 - Catherine Henderson - Sweet De Papa Blues.flac
Size: 6756312 Hash: A4CC7F8B68A72E3CAE26E21CB3C5F084 Accuracy: -m8
Conclusion: MPEG 99%
Signature: 24B2422211B3C09BD3E5BE9128327EBF86EFD6D7
FILE: 15 - Catherine Henderson - Four-Thirty Blues.flac
Size: 5599561 Hash: D23391E1A13EE055F8770E19D5651CAA Accuracy: -m8
Conclusion: MPEG 100%
Signature: 3356A433C5386F840A2BD09A43312995E9739D4B
FILE: 16 - Doc Dasher - Evolution Mama.flac
Size: 6954904 Hash: DA0CCFEB4D707D869DFBE28174A26706 Accuracy: -m8
Conclusion: CDDA 92%
Signature: 12E8901D8C0CDED530F2BD240D5241669A2201AD
FILE: 18 - Sloppy Henry - Foggy Morning Blues.flac
Size: 5445713 Hash: BF9B610FF5AE69590C5DA07DF66D5B41 Accuracy: -m8
Conclusion: CDDA 100%
Signature: 42C960A4D2E3303742E5AEB3876BDC7511868FE1
FILE: 17 - Doc Dasher - West Palm Beach Blues.flac
Size: 5938109 Hash: 8342991800415EF32EDEF8D92A112ADC Accuracy: -m8
Conclusion: CDDA 42%
Signature: 1179FD8925128247CE799D69C0D2C6C2153DCFE2
FILE: 20 - Sloppy Henry - Traveling Blues.flac
Size: 5641645 Hash: 8A95404532BA7BA1EEE6354469E86B15 Accuracy: -m8
Conclusion: MPEG 93%
Signature: 59B044AEEA4BADE07DE9E1D5217BDA52568898B8
FILE: 19 - Sloppy Henry - Bobbed Haired Woman Blues.flac
Size: 6347529 Hash: 270B5F23789BDE329DF0BFA8D9534176 Accuracy: -m8
Conclusion: MPEG 80%
Signature: 51E0D676057D08070E6A05DC239720ECEAD4FDC1
FILE: 21 - Sloppy Henry - Goose-Pecked Man.flac
Size: 4621820 Hash: 7E2026CB798338BA1B761DDB089D3FFB Accuracy: -m8
Conclusion: CDDA 58%
Signature: F5911D436E63BF1947E31B3BB14477293131FB80
FILE: 22 - Sloppy Henry - Alias Charley Jones Blues.flac
Size: 6192952 Hash: 1A08BD851D51D8845CC64A46621F14D4 Accuracy: -m8
Conclusion: CDDA 100%
Signature: 2D17AEB3DD95783DD90490D8284F6FF2B2478A75
FILE: 23 - Sloppy Henry - Run Away Blues.flac
Size: 6819903 Hash: F1DD14A9C7DBD6E2B7A5C6215A71A0FE Accuracy: -m8
Conclusion: CDDA 43%
Signature: CE6A5623BBC11C900B0D5F50D94A002EEF0D4F32
FILE: 24 - Eddie Heywood & His Jazz Six - Let's Start Over Again.flac
Size: 7197727 Hash: 3296AF2D6767200DC39AA3E9ECDF753F Accuracy: -m8
Conclusion: CDDA 100%
Signature: DF5C5FF817BF6D4FEF89AA45E6115D85BE307AE2
FILE: 25 - Eddie Heywood & His Jazz Six - Trombone Moanin' Blues.flac
Size: 6740715 Hash: B0ECF85D8DCDA4B76A28E94326FB3D96 Accuracy: -m8
Conclusion: CDDA 100%
Signature: 6D8DF91F086CB86414545C95B0B997C7D2C0F66D
EDDIE HEYWOOD & THE BLUES SINGERS 1923 - 1926
Document DOCD-5380

EDDIE HEYWOOD
Piano solo.
New York City, September, 1923.
01. 71839-B The Black Bottom Blues [Okeh 8094]
02. 71840-C The Mixed Up Blues [Okeh 8094]

CHARLES ANDERSON
Vocal acc. Eddie Heywood (p).
Chicago, c. October 24, 1923.
03. 8479-A Sing 'Em Blues [Okeh 8124]
04. 8480-B Yodle Song-Coo Coo [Okeh 4980]
05. 8481-A Sleep, Baby, Sleep [Okeh 4980]

GUILFORD (PEACHTREE) PAYNE
Vocal acc. Eddie Heywood (p).
Chicago, c. October 25, 1923.
06. 8482-A You Don't Worry My Mind [Okeh 8103]
07. 8483-A Peachtree Man Blues [Okeh 8103]

CHARLES ANDERSON (1923)
Vocal acc. Eddie Heywood (p).
Chicago, c. October 26, 1923.
08. 8489-A Comic Yodle Song [Okeh 8124]

VIOLA BAKER
Vocal acc. Eddie Heywood (p).
Atlanta, c. March 24, 1924.
09. 8597-A What's The Use Blues [Okeh 8147]

SLOPPY HENRY (1924)
Vocal acc. Eddie Heywood (p).
Atlanta, August 27, 1924.
10. 8715-A Tom Cat Rag [Okeh 8178]
11. 8716-A Cannon Ball Blues [Okeh 8178]

ANNIE SUMMERFORD (vo) acc. Eddie Heywood's Black Bottom Ramblers
poss. Harry Cooper (tp), unknown (tb), Eddie Heywood (p), poss. Bernard Addison (bj).
Atlanta, c. August 30, 1924.
12. 8739-A 'Fo Day Blues [Okeh 8174]
13. 8740-A Low Down Blues [Okeh 8174]

CATHERINE HENDERSON
Edmonia Henderson vocal acc. Eddie Heywood (p).
Atlanta, July, 1925.
14. 9243-A Sweet De Papa Blues [Okeh 8240]
15. 9244-A Four-Thirty Blues [Okeh 8240]

"DOC" DASHER
Vocal acc. Eddie Heywood (p).
Atlanta, September 30, 1925.
16. 141017-1 Evolution Mama [Columbia 14106]
17. 141060-1 West Palm Beach Blues [Columbia 14106]

"SLOPPY" HENRY
Waymon Henry, --- Burr (vo), Eddie Heywood (p).
Atlanta, c. March 8, 1926.
18. 9578-A Foggy Morning Blues [Okeh 8368]
19. 9579-A Bobbed Haired Woman Blues [Okeh 8305]
20. 9580-A Traveling Blues [Okeh 8305]
21. 9582-A Goose-Pecked Man [Okeh 8334]
22. 9583-A Alias Charley Jones Blues [Okeh 8334]
23. 9584-A Run Away Blues [Okeh 8368]

EDDIE HEYWOOD AND HIS JAZZ SIX
Robert Cheek (cnt), "Sweet Papa" Jonas Walker (tb), Edward Alexander (as), unknown (bsx), Eddie Heywood (p), Henry Waits (bj), Theo Johnson (dm).
New York City, October 6, 1926.
24. 74390-B Let's Start Over Again [Okeh 8402]
25. 74391-B Trombone Moanin' Blues [Okeh 8402]


Трекер:  [ 20-Фев-2012 09:40 ]

  

Скачать .torrent

Размер .torrent файла 15 KB


Размер: 153 MB
Хэш (hash) релиза: a59dccb6d9b8babb76d2b9bfb5130e0ced048c6f

Еще никто не оставлял запись к записи скачать торрент Eddie Heywood & The Blues Singers . Будь первым!

!Обратная связь