Скачать через торрент музыку VA - The Best There Ever Was бесплатно без регистрации torrent

Если у вас наблюдаются проблемы со скриншотами, переходом по ссылками, скачиванием торрентов - проблемы в блокировщике рекламы AdBlock. #хорошегоДня!


Статистика раздачи
Размер:  292 MB   |    Зарегистрирован:  5 лет 8 месяцев   |    .torrent скачан:  15 раз   |   
Раздают:  1  
   
Загрузка...
 
Автор Сообщение

Umakiro

avatar Umakiro


VA - The Best There Ever Was (The Legendary Early Blues Performers)

Жанр: blues
Страна-производитель диска: USA
Год издания диска: 2003
Издатель (лейбл): YAZOO
Номер по каталогу: 3002
Аудио кодек: FLAC (*.flac)
Тип рипа: image+.cue
Битрейт аудио: lossless
Продолжительность: 62:26
Источник (релизер): Чуланчик (релизер - zhconst)
Наличие сканов в содержимом раздачи: а как же!
Треклист:
01. Garfield Akers - Dough Roller Blues
02. Tommy Johnson - Big Road Blues
03. Son House - My Black Mamma - Part 1
04. Mississippi John Hurt - Ain't No Tellin
05. Skip James - Cypress Grove
06. Blind Willie Johnson - I Know His Blood Can Make Me Whole
07. Blind Willie McTell - Mama, Tain't Long Fo'Day
08. Jaydee Short - Barefoot Blues
09. Robert Wilkins - I'll Go With Her Blues
10. Ed Bell - Squabblin Blues
11. Charlie Patton - It Won't Be Long
12. Frank Stokes - What's The Matter Blues
13. Geeshie Wiley - Last Kind Word Blues
14. William Harris - Bullfrog Blues
15. Blind Blake - You Gonna Quit Me Blues
16. King Solomon Hill - The Gone Dead Train
17. Memphis Minnie - Outdoor Blues
18. Blind Lemon Jefferson - Prison Cell Blues
19. Sam Collins - Graveyard Digger's Blues
20. Furry Lewis - Big Chief Blues
 
Exact Audio Copy V0.99 prebeta 4 from 23. January 2008

Отчёт EAC об извлечении, выполненном 26. сентября 2010, 1:43

Various Artists / The Best There Ever Was

Дисковод: PIONEER DVD-RW DVR-110D Adapter: 1 ID: 1

Режим чтения : ДостоверностьИспользование точного потока : ДаОтключение кэша аудио : ДаИспользование указателей C2 : Нет

Коррекция смещения при чтении : 48Способность читать области Lead-in и Lead-out : НетЗаполнение пропущенных сэмплов тишиной : ДаУдаление блоков с тишиной в начале и конце : НетПри вычислениях CRC использовались нулевые сэмплы : ДаИнтерфейс : Встроенный Win32-интерфейс для Win NT/2000

Выходной формат : Пользовательский кодировщикВыбранный битрейт : 896 kBit/sКачество : ВысокийДобавление ID3-тэга : НетУтилита сжатия : C:\Program Files\Exact Audio Copy\FLAC\FLAC.EXEДополнительные параметры : -6 -V -T "ARTIST=%a" -T "TITLE=%t" -T "ALBUM=%g" -T "DATE=%y" -T "TRACKNUMBER=%n" -T "GENRE=%m" -T "COMMENT=%e" %s -o %d

TOC извлечённого CD

Трек | Старт | Длительность | Начальный сектор | Конечный сектор --------------------------------------------------------------------- 1 | 0:00.00 | 3:12.63 | 0 | 14462 2 | 3:12.63 | 3:20.55 | 14463 | 29517 3 | 6:33.43 | 3:09.12 | 29518 | 43704 4 | 9:42.55 | 3:01.46 | 43705 | 57325 5 | 12:44.26 | 3:12.37 | 57326 | 71762 6 | 15:56.63 | 3:06.26 | 71763 | 85738 7 | 19:03.14 | 3:04.52 | 85739 | 99590 8 | 22:07.66 | 3:01.35 | 99591 | 113200 9 | 25:09.26 | 3:07.41 | 113201 | 127266 10 | 28:16.67 | 3:04.49 | 127267 | 141115 11 | 31:21.41 | 3:23.23 | 141116 | 156363 12 | 34:44.64 | 3:08.67 | 156364 | 170530 13 | 37:53.56 | 3:04.18 | 170531 | 184348 14 | 40:57.74 | 3:11.19 | 184349 | 198692 15 | 44:09.18 | 2:47.35 | 198693 | 211252 16 | 46:56.53 | 3:20.74 | 211253 | 226326 17 | 50:17.52 | 3:10.64 | 226327 | 240640 18 | 53:28.41 | 2:46.64 | 240641 | 253154 19 | 56:15.30 | 3:15.68 | 253155 | 267847 20 | 59:31.23 | 2:54.16 | 267848 | 280913

Характеристики диапазона извлечения и сообщения об ошибках

Выбранный диапазон

Имя файла G:\Torrents\VA - The Best There Ever Was\Various Artists - The Best There Ever Was.wav

Пиковый уровень 70.7 % Качество диапазона 100.0 % CRC теста 5C6EFD89 CRC копии 5C6EFD89 Копирование... OK

Ошибок не произошло

AccurateRip: сводка

Трек 1 точное извлечение (доверие 2) [FBB4E7F8]Трек 2 точное извлечение (доверие 2) [20F08A70]Трек 3 точное извлечение (доверие 2) [D19C801A]Трек 4 точное извлечение (доверие 2) [5EA92898]Трек 5 точное извлечение (доверие 2) [8056D323]Трек 6 точное извлечение (доверие 2) [F0B44B2B]Трек 7 точное извлечение (доверие 2) [442D7FD4]Трек 8 точное извлечение (доверие 2) [B933E190]Трек 9 точное извлечение (доверие 2) [0EEE1AA7]Трек 10 точное извлечение (доверие 2) [E6AFC668]Трек 11 точное извлечение (доверие 2) [D750DB32]Трек 12 точное извлечение (доверие 2) [09AFDCDC]Трек 13 точное извлечение (доверие 2) [4DE25E8E]Трек 14 точное извлечение (доверие 2) [BE36A726]Трек 15 точное извлечение (доверие 2) [75007E37]Трек 16 точное извлечение (доверие 2) [BC513D2E]Трек 17 точное извлечение (доверие 2) [969E1F3F]Трек 18 точное извлечение (доверие 2) [2BFB9F82]Трек 19 точное извлечение (доверие 2) [2986463D]Трек 20 точное извлечение (доверие 2) [C0C46A6E]

Все треки извлечены точно

Конец отчёта
Доп. информация:


Трекер:  [ 20-Фев-2012 09:39 ]

  

Скачать .torrent

Размер .torrent файла 12 KB


Размер: 292 MB
Хэш (hash) релиза: 6584d68066303ed6f6a8939e0203a7ee3fe236b7

Еще никто не оставлял запись к записи скачать торрент VA - The Best There Ever Was . Будь первым!

!Обратная связь