Скачать через торрент музыку Charley Patton - Complete Recordings 1929-1934 бесплатно без регистрации torrent

Если у вас наблюдаются проблемы со скриншотами, переходом по ссылками, скачиванием торрентов - проблемы в блокировщике рекламы AdBlock. #хорошегоДня!


Статистика раздачи
Размер:  720 MB   |    Зарегистрирован:  5 лет 7 месяцев   |    .torrent скачан:  32 раза   |   
Раздают:  1  
   
Загрузка...
 
Автор Сообщение

Umakiro

avatar Umakiro


Charley Patton - Complete Recordings 1929-1934 (5 CD) JSP box

Жанр: blues
Страна-производитель диска: UK
Год издания диска: 2002
Издатель (лейбл): JSP Records
Номер по каталогу: JSP7702
Аудио кодек: FLAC (*.flac)
Тип рипа: image+.cue
Битрейт аудио: lossless
Продолжительность: 4:45:23
Источник (релизер): Чуланчик (релизер - zhconst)
Наличие сканов в содержимом раздачи: а как же?!
Треклист:
1. Pony Blues
2. Spoonful Blues
3. Down The Dirt Road Blues
4. Prayer Of Death
5. Prayer Of Death
6. Screamin' And Hollerin' The Blues
7. Banty Rooster Blues
8. Tom Rushen Blues
9. It Won't Be Long
10. Shake It And Break It (But Don't Let It Fall Mama)
11. Pea Vine Blues
12. Mississippi Bo Weavil Blues
13. Lord I'm Discouraged
14. I'm Goin' Home
15. Snatch It And Grab It
16. Rag Blues
17. How Come Mama Blues
18. Voice Throwin' Blues
1. Hammer Blues
2. I Shall Not Be Moved
3. High Water Everywhere
4. High Water Everywhere
5. I Shall Not Be Moved
6. Rattlesnake Blues
7. Going To Move To Alabama
8. Hammer Blues
9. Joe Kirby
10. Frankie And Albert
11. Magnolia Blues
12. Devil Sent The Rain Blues
13. Runnin' Wild Blues
14. Some Happy Day
15. Mean Black Moan
16. Green River Blues
17. That's My Man
18. Honey Dripper Blues: No. 2
19. Eight Hour Woman
20. Nickel's Worth Of Liver Blues: No 2
1. Some Of These Days I'll Be Gone
2. Elder Green Blues
3. Jim Lee
4. Jim Lee
5. Mean Black Cat Blues
6. Jesus Is A-Dying
7. Elder Green Blues
8. When Your Way Gets Dark
9. Some Of These Days I'll Be Gone
10. Heart Like Railwood Steel
11. Circle Round The Moon
12. You're Gonna Need Somebody When You Die
13. Be True Be True Blues
14. Farrell Blues
15. Tell Me Man Blues
16. Come Back Corrina
1. Some Summer Day
2. Bird Nest Bound
3. Future Blues
4. M & O Blues
5. Walkin' Blues
6. My Black Mama
7. My Black Mama
8. Preachin' The Blues
9. Preachin' The Blues
10. Dry Spell Blues
11. Dry Spell Blues
12. All Night Long Blues
13. On the Wall
14. All Night Long Blues
15. By The Moon And Stars
16. Long Ways From Home
1. Dry Well Blues
2. Moon Going Down
3. We All Gonna Face The Rising Sun
4. Moaner Let's Go Down In The Valley
5. Jesus Got His Arms Around Me
6. God Won't Forsake His Own
7. I'll Be Here
8. Where Was Eve Sleeping
9. I Know My Time Ain't Long
10. Watch And Pray
11. High Sheriff Blues
12. Stone Pony Blues
13. Jersey Bull Blues
14. Hang It On The Wall
15. 34 Blues
16. Love My Stuff
17. Poor Me
18. Revenue Man Blues
19. Troubled 'Bout My Mother
20. Oh Death
21. Yellow Bee
22. Mind Reader Blues
 
Exact Audio Copy V0.99 prebeta 4 from 23. January 2008

EAC extraction logfile from 7. November 2010, 13:09

Charley Patton / Complete Recordings 1929-1934 (Disc A June 1929)

Used drive : PIONEER DVD-RW DVR-110D Adapter: 1 ID: 1

Read mode : SecureUtilize accurate stream : YesDefeat audio cache : YesMake use of C2 pointers : No

Read offset correction : 48Overread into Lead-In and Lead-Out : NoFill up missing offset samples with silence : YesDelete leading and trailing silent blocks : NoNull samples used in CRC calculations : YesUsed interface : Native Win32 interface for Win NT & 2000

Used output format : User Defined EncoderSelected bitrate : 1024 kBit/sQuality : HighAdd ID3 tag : NoCommand line compressor : C:\Program Files\Exact Audio Copy\FLAC\FLAC.EXEAdditional command line options : -6 -V -T "ARTIST=%a" -T "TITLE=%t" -T "ALBUM=%g" -T "DATE=%y" -T "TRACKNUMBER=%n" -T "GENRE=%m" -T "COMMENT=%e" %s -o %d

TOC of the extracted CD

Track | Start | Length | Start sector | End sector --------------------------------------------------------- 1 | 0:00.00 | 3:02.37 | 0 | 13686 2 | 3:02.37 | 3:12.55 | 13687 | 28141 3 | 6:15.17 | 3:00.53 | 28142 | 41694 4 | 9:15.70 | 3:07.62 | 41695 | 55781 5 | 12:23.57 | 2:53.53 | 55782 | 68809 6 | 15:17.35 | 3:10.60 | 68810 | 83119 7 | 18:28.20 | 3:05.45 | 83120 | 97039 8 | 21:33.65 | 3:08.67 | 97040 | 111206 9 | 24:42.57 | 3:29.55 | 111207 | 126936 10 | 28:12.37 | 3:09.28 | 126937 | 141139 11 | 31:21.65 | 3:06.37 | 141140 | 155126 12 | 34:28.27 | 3:11.30 | 155127 | 169481 13 | 37:39.57 | 3:10.65 | 169482 | 183796 14 | 40:50.47 | 3:08.33 | 183797 | 197929 15 | 43:59.05 | 3:08.47 | 197930 | 212076 16 | 47:07.52 | 3:02.63 | 212077 | 225789 17 | 50:10.40 | 3:09.02 | 225790 | 239966 18 | 53:19.42 | 3:02.48 | 239967 | 253664

Range status and errors

Selected range

Filename G:\Torrents\Charley Patton - Complete Recordings (5 CD) JSP box\Disc A\Charley Patton - Complete Recordings 1929-1934 (Disc A June 1929).wav

Peak level 93.9 % Range quality 100.0 % Test CRC 7B9652A5 Copy CRC 7B9652A5 Copy OK

No errors occurred

AccurateRip summary

Track 1 accurately ripped (confidence 9) [C79CB03C]Track 2 accurately ripped (confidence 9) [C2ADD868]Track 3 accurately ripped (confidence 9) [A404CED4]Track 4 accurately ripped (confidence 9) [93111B53]Track 5 accurately ripped (confidence 9) [4639CB19]Track 6 accurately ripped (confidence 9) [F0DD1429]Track 7 accurately ripped (confidence 9) [38855F28]Track 8 accurately ripped (confidence 9) [5EEF1068]Track 9 accurately ripped (confidence 9) [CF35508E]Track 10 accurately ripped (confidence 9) [7F0C3795]Track 11 accurately ripped (confidence 9) [1367F574]Track 12 accurately ripped (confidence 9) [0DF21136]Track 13 accurately ripped (confidence 9) [A9C52CFD]Track 14 accurately ripped (confidence 9) [D5CB0C71]Track 15 accurately ripped (confidence 9) [ACF4955B]Track 16 accurately ripped (confidence 9) [EA2B3FBB]Track 17 accurately ripped (confidence 9) [F7DC0CAD]Track 18 accurately ripped (confidence 9) [A6C00328]

All tracks accurately ripped

End of status report
 
Exact Audio Copy V0.99 prebeta 4 from 23. January 2008

EAC extraction logfile from 7. November 2010, 13:51

Charley Patton / Complete Recordings 1929-1934 (Disc B Oct 1929)

Used drive : PIONEER DVD-RW DVR-110D Adapter: 1 ID: 1

Read mode : SecureUtilize accurate stream : YesDefeat audio cache : YesMake use of C2 pointers : No

Read offset correction : 48Overread into Lead-In and Lead-Out : NoFill up missing offset samples with silence : YesDelete leading and trailing silent blocks : NoNull samples used in CRC calculations : YesUsed interface : Native Win32 interface for Win NT & 2000

Used output format : User Defined EncoderSelected bitrate : 1024 kBit/sQuality : HighAdd ID3 tag : NoCommand line compressor : C:\Program Files\Exact Audio Copy\FLAC\FLAC.EXEAdditional command line options : -6 -V -T "ARTIST=%a" -T "TITLE=%t" -T "ALBUM=%g" -T "DATE=%y" -T "TRACKNUMBER=%n" -T "GENRE=%m" -T "COMMENT=%e" %s -o %d

TOC of the extracted CD

Track | Start | Length | Start sector | End sector --------------------------------------------------------- 1 | 0:00.00 | 3:20.17 | 0 | 15016 2 | 3:20.17 | 2:44.25 | 15017 | 27341 3 | 6:04.42 | 3:01.33 | 27342 | 40949 4 | 9:06.00 | 3:01.17 | 40950 | 54541 5 | 12:07.17 | 3:06.45 | 54542 | 68536 6 | 15:13.62 | 2:48.55 | 68537 | 81191 7 | 18:02.42 | 3:02.45 | 81192 | 94886 8 | 21:05.12 | 3:17.45 | 94887 | 109706 9 | 24:22.57 | 3:10.70 | 109707 | 124026 10 | 27:33.52 | 3:12.23 | 124027 | 138449 11 | 30:46.00 | 2:58.55 | 138450 | 151854 12 | 33:44.55 | 3:05.27 | 151855 | 165756 13 | 36:50.07 | 2:58.03 | 165757 | 179109 14 | 39:48.10 | 3:11.15 | 179110 | 193449 15 | 42:59.25 | 3:19.47 | 193450 | 208421 16 | 46:18.72 | 3:09.45 | 208422 | 222641 17 | 49:28.42 | 3:41.15 | 222642 | 239231 18 | 53:09.57 | 3:12.53 | 239232 | 253684 19 | 56:22.35 | 2:49.55 | 253685 | 266414 20 | 59:12.15 | 2:39.05 | 266415 | 278344

Range status and errors

Selected range

Filename G:\Torrents\Charley Patton - Complete Recordings (5 CD) JSP box\Disc B\Charley Patton - Complete Recordings 1929-1934 (Disc B Oct 1929).wav

Peak level 97.8 % Range quality 100.0 % Test CRC 43BBBB1D Copy CRC 43BBBB1D Copy OK

No errors occurred

AccurateRip summary

Track 1 accurately ripped (confidence 5) [7A804EED]Track 2 accurately ripped (confidence 5) [CC51A039]Track 3 accurately ripped (confidence 5) [FEBF4216]Track 4 accurately ripped (confidence 5) [F4E2C400]Track 5 accurately ripped (confidence 5) [8B443E6B]Track 6 accurately ripped (confidence 5) [EF59A593]Track 7 accurately ripped (confidence 5) [9717E568]Track 8 accurately ripped (confidence 5) [87E313F7]Track 9 accurately ripped (confidence 5) [55FE55EC]Track 10 accurately ripped (confidence 5) [5B77E548]Track 11 accurately ripped (confidence 5) [92C933EB]Track 12 accurately ripped (confidence 5) [AE388643]Track 13 accurately ripped (confidence 5) [4246EFC4]Track 14 accurately ripped (confidence 5) [8DB1438D]Track 15 accurately ripped (confidence 5) [C83D3E07]Track 16 accurately ripped (confidence 5) [A439E69A]Track 17 accurately ripped (confidence 5) [DB9B99F2]Track 18 accurately ripped (confidence 5) [7A50C1BB]Track 19 accurately ripped (confidence 5) [850B8219]Track 20 accurately ripped (confidence 5) [3E136CBC]

All tracks accurately ripped

End of status report
 
Exact Audio Copy V0.99 prebeta 4 from 23. January 2008

EAC extraction logfile from 7. November 2010, 14:10

Charley Patton / Complete Recordings 1929-1934 (Disc C Oct 1929)

Used drive : PIONEER DVD-RW DVR-110D Adapter: 1 ID: 1

Read mode : SecureUtilize accurate stream : YesDefeat audio cache : YesMake use of C2 pointers : No

Read offset correction : 48Overread into Lead-In and Lead-Out : NoFill up missing offset samples with silence : YesDelete leading and trailing silent blocks : NoNull samples used in CRC calculations : YesUsed interface : Native Win32 interface for Win NT & 2000

Used output format : User Defined EncoderSelected bitrate : 1024 kBit/sQuality : HighAdd ID3 tag : NoCommand line compressor : C:\Program Files\Exact Audio Copy\FLAC\FLAC.EXEAdditional command line options : -6 -V -T "ARTIST=%a" -T "TITLE=%t" -T "ALBUM=%g" -T "DATE=%y" -T "TRACKNUMBER=%n" -T "GENRE=%m" -T "COMMENT=%e" %s -o %d

TOC of the extracted CD

Track | Start | Length | Start sector | End sector --------------------------------------------------------- 1 | 0:00.00 | 2:52.72 | 0 | 12971 2 | 2:52.72 | 3:02.23 | 12972 | 26644 3 | 5:55.20 | 3:06.50 | 26645 | 40644 4 | 9:01.70 | 3:03.25 | 40645 | 54394 5 | 12:05.20 | 2:55.10 | 54395 | 67529 6 | 15:00.30 | 2:54.35 | 67530 | 80614 7 | 17:54.65 | 3:04.35 | 80615 | 94449 8 | 20:59.25 | 3:09.47 | 94450 | 108671 9 | 24:08.72 | 3:10.35 | 108672 | 122956 10 | 27:19.32 | 2:51.50 | 122957 | 135831 11 | 30:11.07 | 2:34.60 | 135832 | 147441 12 | 32:45.67 | 2:52.33 | 147442 | 160374 13 | 35:38.25 | 3:03.42 | 160375 | 174141 14 | 38:41.67 | 3:08.48 | 174142 | 188289 15 | 41:50.40 | 3:15.20 | 188290 | 202934 16 | 45:05.60 | 3:09.27 | 202935 | 217136

Range status and errors

Selected range

Filename G:\Torrents\Charley Patton - Complete Recordings (5 CD) JSP box\Disc C\Charley Patton - Complete Recordings 1929-1934 (Disc C Oct 1929).wav

Peak level 80.8 % Range quality 100.0 % Test CRC 98AF49A2 Copy CRC 98AF49A2 Copy OK

No errors occurred

AccurateRip summary

Track 1 accurately ripped (confidence 5) [C6810618]Track 2 accurately ripped (confidence 5) [17ED0F7D]Track 3 accurately ripped (confidence 5) [18900E94]Track 4 accurately ripped (confidence 5) [8CAC2D12]Track 5 accurately ripped (confidence 5) [143D1CF9]Track 6 accurately ripped (confidence 5) [FB6A510B]Track 7 accurately ripped (confidence 5) [E48D0761]Track 8 accurately ripped (confidence 5) [49249329]Track 9 accurately ripped (confidence 5) [892D42C6]Track 10 accurately ripped (confidence 5) [67EBB91F]Track 11 accurately ripped (confidence 5) [4857DA71]Track 12 accurately ripped (confidence 5) [D46434C5]Track 13 accurately ripped (confidence 5) [8D083837]Track 14 accurately ripped (confidence 5) [5F718F1A]Track 15 accurately ripped (confidence 5) [9AF615B4]Track 16 accurately ripped (confidence 5) [22992482]

All tracks accurately ripped

End of status report
 
Exact Audio Copy V0.99 prebeta 4 from 23. January 2008

EAC extraction logfile from 7. November 2010, 14:33

Charley Patton / Complete Recordings 1929 - 1934 (Disc D June 1930)

Used drive : PIONEER DVD-RW DVR-110D Adapter: 1 ID: 1

Read mode : SecureUtilize accurate stream : YesDefeat audio cache : YesMake use of C2 pointers : No

Read offset correction : 48Overread into Lead-In and Lead-Out : NoFill up missing offset samples with silence : YesDelete leading and trailing silent blocks : NoNull samples used in CRC calculations : YesUsed interface : Native Win32 interface for Win NT & 2000

Used output format : User Defined EncoderSelected bitrate : 1024 kBit/sQuality : HighAdd ID3 tag : NoCommand line compressor : C:\Program Files\Exact Audio Copy\FLAC\FLAC.EXEAdditional command line options : -6 -V -T "ARTIST=%a" -T "TITLE=%t" -T "ALBUM=%g" -T "DATE=%y" -T "TRACKNUMBER=%n" -T "GENRE=%m" -T "COMMENT=%e" %s -o %d

TOC of the extracted CD

Track | Start | Length | Start sector | End sector --------------------------------------------------------- 1 | 0:00.00 | 3:05.50 | 0 | 13924 2 | 3:05.50 | 3:13.45 | 13925 | 28444 3 | 6:19.20 | 3:02.32 | 28445 | 42126 4 | 9:21.52 | 3:11.65 | 42127 | 56516 5 | 12:33.42 | 2:58.10 | 56517 | 69876 6 | 15:31.52 | 3:09.68 | 69877 | 84119 7 | 18:41.45 | 3:16.60 | 84120 | 98879 8 | 21:58.30 | 3:06.05 | 98880 | 112834 9 | 25:04.35 | 2:55.15 | 112835 | 125974 10 | 27:59.50 | 3:13.32 | 125975 | 140481 11 | 31:13.07 | 3:18.25 | 140482 | 155356 12 | 34:31.32 | 3:13.33 | 155357 | 169864 13 | 37:44.65 | 3:06.02 | 169865 | 183816 14 | 40:50.67 | 3:04.53 | 183817 | 197669 15 | 43:55.45 | 2:54.60 | 197670 | 210779 16 | 46:50.30 | 3:28.72 | 210780 | 226451

Range status and errors

Selected range

Filename G:\Torrents\Charley Patton - Complete Recordings (5 CD) JSP box\Disc D\Charley Patton - Complete Recordings 1929-1934 (Disc D June 1930).wav

Peak level 97.9 % Range quality 100.0 % Test CRC E615FBD8 Copy CRC E615FBD8 Copy OK

No errors occurred

AccurateRip summary

Track 1 accurately ripped (confidence 8) [82B2588D]Track 2 accurately ripped (confidence 8) [C4695454]Track 3 accurately ripped (confidence 8) [C4434D30]Track 4 accurately ripped (confidence 8) [A0BCCF1B]Track 5 accurately ripped (confidence 8) [99F7EEEA]Track 6 accurately ripped (confidence 8) [09BBA461]Track 7 accurately ripped (confidence 8) [70BEEEE7]Track 8 accurately ripped (confidence 8) [B6D900FE]Track 9 accurately ripped (confidence 8) [D3FF3C0B]Track 10 accurately ripped (confidence 8) [3B7DBDB2]Track 11 accurately ripped (confidence 8) [52657228]Track 12 accurately ripped (confidence 8) [BA14AACF]Track 13 accurately ripped (confidence 8) [C359DA7B]Track 14 accurately ripped (confidence 8) [84358422]Track 15 accurately ripped (confidence 8) [BD8B9889]Track 16 accurately ripped (confidence 8) [605F5C0B]

All tracks accurately ripped

End of status report
 
Exact Audio Copy V0.99 prebeta 4 from 23. January 2008

EAC extraction logfile from 7. November 2010, 15:01

Charley Patton / Complete Recordings 1929-1934 (Disc E 1930-1934)

Used drive : PIONEER DVD-RW DVR-110D Adapter: 1 ID: 1

Read mode : SecureUtilize accurate stream : YesDefeat audio cache : YesMake use of C2 pointers : No

Read offset correction : 48Overread into Lead-In and Lead-Out : NoFill up missing offset samples with silence : YesDelete leading and trailing silent blocks : NoNull samples used in CRC calculations : YesUsed interface : Native Win32 interface for Win NT & 2000

Used output format : User Defined EncoderSelected bitrate : 1024 kBit/sQuality : HighAdd ID3 tag : NoCommand line compressor : C:\Program Files\Exact Audio Copy\FLAC\FLAC.EXEAdditional command line options : -6 -V -T "ARTIST=%a" -T "TITLE=%t" -T "ALBUM=%g" -T "DATE=%y" -T "TRACKNUMBER=%n" -T "GENRE=%m" -T "COMMENT=%e" %s -o %d

TOC of the extracted CD

Track | Start | Length | Start sector | End sector --------------------------------------------------------- 1 | 0:00.00 | 3:23.02 | 0 | 15226 2 | 3:23.02 | 3:18.35 | 15227 | 30111 3 | 6:41.37 | 3:41.45 | 30112 | 46731 4 | 10:23.07 | 3:02.60 | 46732 | 60441 5 | 13:25.67 | 3:11.15 | 60442 | 74781 6 | 16:37.07 | 3:24.18 | 74782 | 90099 7 | 20:01.25 | 3:11.37 | 90100 | 104461 8 | 23:12.62 | 3:18.65 | 104462 | 119376 9 | 26:31.52 | 3:15.05 | 119377 | 134006 10 | 29:46.57 | 3:04.58 | 134007 | 147864 11 | 32:51.40 | 3:14.25 | 147865 | 162439 12 | 36:05.65 | 2:56.02 | 162440 | 175641 13 | 39:01.67 | 3:12.40 | 175642 | 190081 14 | 42:14.32 | 2:47.58 | 190082 | 202664 15 | 45:02.15 | 2:59.72 | 202665 | 216161 16 | 48:02.12 | 2:59.70 | 216162 | 229656 17 | 51:02.07 | 3:01.13 | 229657 | 243244 18 | 54:03.20 | 2:46.30 | 243245 | 255724 19 | 56:49.50 | 2:58.70 | 255725 | 269144 20 | 59:48.45 | 2:54.15 | 269145 | 282209 21 | 62:42.60 | 2:56.10 | 282210 | 295419 22 | 65:38.70 | 2:55.60 | 295420 | 308604

Range status and errors

Selected range

Filename G:\Torrents\Charley Patton - Complete Recordings (5 CD) JSP box\Disc E\Charley Patton - Complete Recordings 1929-1934 (Disc E 1930-1934).wav

Peak level 99.1 % Range quality 99.9 % Test CRC 05E8500E Copy CRC 05E8500E Copy OK

No errors occurred

AccurateRip summary

Track 1 accurately ripped (confidence 6) [AF79B5EC]Track 2 accurately ripped (confidence 6) [4E0EC268]Track 3 accurately ripped (confidence 6) [E36A2878]Track 4 accurately ripped (confidence 6) [AB2487CA]Track 5 accurately ripped (confidence 6) [F690BA11]Track 6 accurately ripped (confidence 6) [755AF6C3]Track 7 accurately ripped (confidence 6) [98FAA775]Track 8 accurately ripped (confidence 6) [06EF5DBE]Track 9 accurately ripped (confidence 6) [EEB7BFCB]Track 10 accurately ripped (confidence 6) [B2B302E1]Track 11 accurately ripped (confidence 6) [327B4518]Track 12 accurately ripped (confidence 6) [12CF3058]Track 13 accurately ripped (confidence 6) [7C46E6C5]Track 14 accurately ripped (confidence 6) [46CB0504]Track 15 accurately ripped (confidence 6) [E85FAE37]Track 16 accurately ripped (confidence 6) [73FDDDEF]Track 17 accurately ripped (confidence 6) [E27B0EB7]Track 18 accurately ripped (confidence 6) [0172EC0A]Track 19 accurately ripped (confidence 6) [B9AC9712]Track 20 accurately ripped (confidence 6) [F6D25EC7]Track 21 accurately ripped (confidence 6) [462BC1C9]Track 22 accurately ripped (confidence 6) [19854BBD]

All tracks accurately ripped

End of status report
Доп. информация:
[i]Род. 1 мая 1891 года в Болтоне (Bolton), штат Миссиссиппи, ум. 28 апреля 1934 года в Индианоле, Миссиссиппи.
Смерть Чарли Паттона от хронической сердечной недостаточности в возрасте 43 лет прервала его неустанный поиск всех тех радостей жизни, которые были доступны чернокожему в Миссиссиппи - спиртного, женщин, еды (по милости женщин), музыки и всяческого уклонени от сельскохозяйственного труда, что в свою очередь давало еще одну выгоду - свободу передвижения.
К 1910 году у Паттона уже сложился репертуар из своих собственных сочинений, таких как «Pony Blues», «Banty Rooster Blues», «Down the Dirt Road» и его версии блюза «Mississippi Bo Weavil», которые он и записал на своем первом сеансе в 1929 году. Он разучил также несколько спиричуэлов, хотя степень его религиозной убежденности остается неясной. Ко времени своей первой записи Паттон был уже одним из ведущих блюзменов Миссиссиппи, популярных как среди чернокожих, так и среди белого населения, и имел возможность зарабатывать себе на жизнь исключительно музыкой. Влияние его на местных музыкантов, включая его постоянного партнера Вилли Брауна (Willie Brown), также как и на Томми Джонсона (Tommy Johnson) и Сон Хауса (Son House) было огромным. Букка Уайт (Bukka White), Биг («Большой») Джо Уильямс (Big Joe Williams) и Хаулин Вулф (Howlin’ Wolf) - лишь некоторые из тех, на чью музыку Чарли Паттон оказал самое глубокое влияние.
Его собственный звук узнаваем с первых же тактов: хриплое, резкое пение, порой нечленораздельное даже для тех, кто находился непосредственно рядом, прерываемое разговорными ремарками, и сопровождаемое полной энергии, с непревзойденным чувством ритма, игрой на гитаре. У Паттона было несколько мотивов и тем, которые он любил перерабатывать, некоторые песни он записывал по нескольку раз, никогда впрочем не опускаясь до бездушного повторения. Его уникальные фразировка и акценты очень изобретательны, гитара дополняет голос, а не просто следует вослед ритму песенного текста. Во время пени Паттон мог держать взятую ноту поразительно долго, и одна из замечательных черт его исполнения - то, как тянущаяся таким образом нота накрывает гитарную фразу, вводящую следующий куплет. Паттон был в равной степени мастером обоих стилей игры: как обычного, так и «боттлнек», а, играя слайдом, он с искусством, доступным весьма немногим, как бы дает гитаре голос второго певца.
В 1929-1930 годах он часто записывался на студии «Парамаунт» (Paramount), а в 1934 году - на «Вокалион» (Vocalion), и эти записи наглядно подтверждают широту его репертуара. Возможно, именно объемы продаж записей Паттона внушили записывающим компаниям мысль записывать также и его аккомпаниаторов, гитариста Вилли Брауна, скрипача Генри Симса (Henry Sims) и певицу Берту Ли (Bertha Lee), его последнюю жену.
Естественно, Паттон исполнял блюзы от первого лица, многие из них - о его отношениях с женщинами, а кроме того - о том, как его арестовывали за пьянство и кокаин («A Spoonful Blues»), о радостях секса («Shake It and Break It»), или, как в «Down the Dirt Road Blues», это могли быть яркие зарисовки о жизни чернокожих в Миссиссиппи. Паттон создал значительное количество злободневных песен, таких как блюз о засухе «Dry Well» и «High Water Everywhere», почти кинематографический по живости описания песенный рассказ о наводнении 1927 года в Миссиссиппи. Кроме блюзов и спиричуэлов, Паттон записал несколько песеннных пьес, таких как "Frankie and Albert" и антиклерикальная "Elder Greene Blues". Кроме того, Паттон записал свои версии таких популярных песен как "Kansas City Blues", "Running Wild" и даже "Some of These Days", которую исполняла Софи Таккер (Sophie Tucker).
Исследователи блюза до сих пор не могут сойтись во мнении, кем же на самом деле был Паттон - чуждым какой-либо морали паяцем или "совестью Дельты"; легкомысленным развлекателем или серьезным артистом. Вероятно, истина в том, что он был человеком своего времени, который, однако же, сумел опередить его, и до известной степени прожить жизнь так, как он хотел, в условиях системы, которая отрицала такую возможность для чернокожих. Похожее суждение можно высказать и о его достижениях как музыканта и поэта: Паттон был сформирован и принадлеждал к музыкальной культуре своей среды, однако принимая во внимание его юный возраст на заре XX века, в те времена, когда блюз становился доминантой народной музыки черного населения Америки, нельзя не признать, что его заслуги в дальнейшем развитии прежних форм посредством его таланта - весьма замечательны.


Трекер:  [ 20-Фев-2012 09:38 ]

  

Скачать .torrent

Размер .torrent файла 17 KB


Размер: 720 MB
Хэш (hash) релиза: fc1b67a5cb6ca3dd9384b5608f61c97a1991f7bd

Еще никто не оставлял запись к записи скачать торрент Charley Patton - Complete Recordings 1929-1934 . Будь первым!

!Обратная связь