Скачать через торрент музыку Ruth Brown - The Definitive Soul Collection бесплатно без регистрации torrent

Если у вас наблюдаются проблемы со скриншотами, переходом по ссылками, скачиванием торрентов - проблемы в блокировщике рекламы AdBlock. #хорошегоДня!


Статистика раздачи
Размер:  355 MB   |    Зарегистрирован:  5 лет 8 месяцев   |    .torrent скачан:  38 раз   |   
Раздают:  1  
   
Загрузка...
 
Автор Сообщение

Umakiro

avatar Umakiro


Ruth Brown / The Definitive Soul Collection (2CD)

Жанр: Jump Blues, Early R&B
Страна-производитель диска: USA
Год издания диска: 2007
Издатель (лейбл): Rhino
Номер по каталогу: 122684
Страна: USA
Аудиокодек: WavPack (*.wv)
Тип рипа: image+.cue
Битрейт аудио: lossless
Продолжительность: 42:48 + 38:28
Источник (релизер): Найдено в сети. Released by RunawayTrane
Наличие сканов в содержимом раздачи: да HQ Scans
01. So Long [Harris, Melsher, Morgan] (2:41)
02. I'll Get Along Somehow [Fields, Marks] (2:38)
03. Teardrops from My Eyes [Toombs] (2:59)
04. I'll Wait for You [Toombs] (2:37)
05. I Know [Abramson, Ertegun, Toombs] (2:49)
06. Shine On (Big Bright Moon, Shine On) [Whittaker] (2:55)
07. 5-10-15 Hours [Toombs] (3:14)
08. Daddy Daddy [Toombs] (2:57)
09. Have a Good Time [Bryant] (3:18)
10. (Mama) He Treats Your Daughter Mean [Lance, Singleton, Wallace] (2:59)
11. R.B. Blues [Brown] (2:40)
12. Wild Wild Young Men [Ertegun] (2:32)
13. Mend Your Ways [Chase, Kirkland] (2:49)
14. Hello Little Boy [Brown] (2:38)
15. Oh What a Dream [Willis] (2:54)
16. Mambo Baby [McCoy, Singleton] (2:43)
17. Somebody Touched Me [Ertegun] (2:26)
18. Bye Bye Young Men [Dossie] (2:44)
19. As Long as I'm Moving [Calhoun] (2:44)
20. I Can See Everybody's Baby [Kirkland, Thomas] (3:01)
21. It's Love Baby (24 Hours of the Day) [Jarrett] (2:43)
22. I Want to Do More [Leiber, Stoller] (2:54)
23. Sweet Baby of Mine [Sharp] (2:33)
24. Lucky Lips [Leiber, Stoller] (2:10)
25. This Little Girl's Gone Rockin' [Curtis, Darin] (1:49)
26. Why Me [Benton, Hendricks, Mack] (2:26)
27. Jack O' Diamonds [Leiber, Stoller] (2:30)
28. I Can't Hear a Word You Say [Leiber, Stoller] (2:29)
29. I Don't Know [Benton, Stevenson] (2:53)
30. Don't Deceive Me [Benton, Hendricks, Mack] (2:15)
 
Exact Audio Copy V0.99 prebeta 5 from 4. May 2009

EAC extraction logfile from 17. April 2010, 13:01

Ruth Brown / The Definitive Soul Collection [Disc 1]

Used drive : Memorex 52MAXX 3252AJ1 Adapter: 1 ID: 0

Read mode : SecureUtilize accurate stream : YesDefeat audio cache : YesMake use of C2 pointers : No

Read offset correction : 6Overread into Lead-In and Lead-Out : NoFill up missing offset samples with silence : YesDelete leading and trailing silent blocks : NoNull samples used in CRC calculations : YesUsed interface : Native Win32 interface for Win NT & 2000

Used output format : User Defined EncoderSelected bitrate : 768 kBit/sQuality : HighAdd ID3 tag : NoCommand line compressor : C:\Users\M@se\Music\Audio Tools\Wavpack\wavpack.exeAdditional command line options : -w "Artist=%a" -w "Title=%t" -w "Album=%g" -w "Year=%y" -w "Track=%n" -w "Genre=%m" -h %s %d

TOC of the extracted CD

Track | Start | Length | Start sector | End sector --------------------------------------------------------- 1 | 0:00.00 | 2:41.04 | 0 | 12078 2 | 2:41.04 | 2:38.31 | 12079 | 23959 3 | 5:19.35 | 2:59.11 | 23960 | 37395 4 | 8:18.46 | 2:37.61 | 37396 | 49231 5 | 10:56.32 | 2:49.34 | 49232 | 61940 6 | 13:45.66 | 2:55.74 | 61941 | 75139 7 | 16:41.65 | 3:14.56 | 75140 | 89745 8 | 19:56.46 | 2:57.26 | 89746 | 103046 9 | 22:53.72 | 3:18.42 | 103047 | 117938 10 | 26:12.39 | 2:59.32 | 117939 | 131395 11 | 29:11.71 | 2:40.71 | 131396 | 143466 12 | 31:52.67 | 2:32.40 | 143467 | 154906 13 | 34:25.32 | 2:49.73 | 154907 | 167654 14 | 37:15.30 | 2:38.48 | 167655 | 179552 15 | 39:54.03 | 2:54.30 | 179553 | 192632

Range status and errors

Selected range

Filename C:\Users\M@se\Music\Archives\Rips\Ruth Brown - The Definitive Soul Collection - D1.wav

Peak level 99.8 % Range quality 100.0 % Test CRC B05C11FD Copy CRC B05C11FD Copy OK

No errors occurred

AccurateRip summary

Track 1 not present in databaseTrack 2 not present in databaseTrack 3 not present in databaseTrack 4 not present in databaseTrack 5 not present in databaseTrack 6 not present in databaseTrack 7 not present in databaseTrack 8 not present in databaseTrack 9 not present in databaseTrack 10 not present in databaseTrack 11 not present in databaseTrack 12 not present in databaseTrack 13 not present in databaseTrack 14 not present in databaseTrack 15 not present in database

None of the tracks are present in the AccurateRip database

End of status report
 
Exact Audio Copy V0.99 prebeta 5 from 4. May 2009

EAC extraction logfile from 17. April 2010, 13:56

Ruth Brown / The Definitive Soul Collection [Disc 2]

Used drive : Memorex 52MAXX 3252AJ1 Adapter: 1 ID: 0

Read mode : SecureUtilize accurate stream : YesDefeat audio cache : YesMake use of C2 pointers : No

Read offset correction : 6Overread into Lead-In and Lead-Out : NoFill up missing offset samples with silence : YesDelete leading and trailing silent blocks : NoNull samples used in CRC calculations : YesUsed interface : Native Win32 interface for Win NT & 2000

Used output format : User Defined EncoderSelected bitrate : 768 kBit/sQuality : HighAdd ID3 tag : NoCommand line compressor : C:\Users\M@se\Music\Audio Tools\Wavpack\wavpack.exeAdditional command line options : -w "Artist=%a" -w "Title=%t" -w "Album=%g" -w "Year=%y" -w "Track=%n" -w "Genre=%m" -h %s %d

TOC of the extracted CD

Track | Start | Length | Start sector | End sector --------------------------------------------------------- 1 | 0:00.00 | 2:43.68 | 0 | 12292 2 | 2:43.68 | 2:26.54 | 12293 | 23296 3 | 5:10.47 | 2:44.07 | 23297 | 35603 4 | 7:54.54 | 2:44.49 | 35604 | 47952 5 | 10:39.28 | 3:01.36 | 47953 | 61563 6 | 13:40.64 | 2:43.51 | 61564 | 73839 7 | 16:24.40 | 2:54.38 | 73840 | 86927 8 | 19:19.03 | 2:33.69 | 86928 | 98471 9 | 21:52.72 | 2:10.28 | 98472 | 108249 10 | 24:03.25 | 1:49.65 | 108250 | 116489 11 | 25:53.15 | 2:26.12 | 116490 | 127451 12 | 28:19.27 | 2:30.18 | 127452 | 138719 13 | 30:49.45 | 2:29.44 | 138720 | 149938 14 | 33:19.14 | 2:53.68 | 149939 | 162981 15 | 36:13.07 | 2:15.42 | 162982 | 173148

Range status and errors

Selected range

Filename C:\Users\M@se\Music\Archives\Rips\Ruth Brown - The Definitive Soul Collection [Disc 2].wav

Peak level 99.8 % Range quality 100.0 % Test CRC 74272B9A Copy CRC 74272B9A Copy OK

No errors occurred

AccurateRip summary

Track 1 not present in databaseTrack 2 not present in databaseTrack 3 not present in databaseTrack 4 not present in databaseTrack 5 not present in databaseTrack 6 not present in databaseTrack 7 not present in databaseTrack 8 not present in databaseTrack 9 not present in databaseTrack 10 not present in databaseTrack 11 not present in databaseTrack 12 not present in databaseTrack 13 not present in databaseTrack 14 not present in databaseTrack 15 not present in database

None of the tracks are present in the AccurateRip database

End of status report
 
-----------------------

DON'T MODIFY THIS FILE

-----------------------

PERFORMER: auCDtect Task Manager, ver. 1.5.1RC6 build 1.5.1.7Copyright (c) 2008-2010 y-soft. All rights reservedhttp://y-soft.org

ANALYZER: auCDtect: CD records authenticity detector, version 0.8.2Copyright (c) 2004 Oleg Berngardt. All rights reserved.Copyright (c) 2004 Alexander Djourik. All rights reserved.

FILE: Ruth Brown - The Definitive Soul Collection [Disc 1].wv Size: 168860687 Hash: 593C982D800C4D6FB45605DDEDEA275B Accuracy: -m0 Conclusion: CDDA 100% Signature: C54BC0F865FFF0C1A0950036934B4E23B67C0E6F

-----------------------

DON'T MODIFY THIS FILE

-----------------------

PERFORMER: auCDtect Task Manager, ver. 1.5.1RC6 build 1.5.1.7Copyright (c) 2008-2010 y-soft. All rights reservedhttp://y-soft.org

ANALYZER: auCDtect: CD records authenticity detector, version 0.8.2Copyright (c) 2004 Oleg Berngardt. All rights reserved.Copyright (c) 2004 Alexander Djourik. All rights reserved.

FILE: Ruth Brown - The Definitive Soul Collection [Disc 2].wv Size: 155719028 Hash: 0C52ABE2518D0E74FD2AB1D38B692CE9 Accuracy: -m0 Conclusion: CDDA 100% Signature: D5A89B9DD5B77B78B515AD756CC3A4A373A157BF
Ruth Brown Vocals
Bill Dahl Liner Notes
Sheryl Farber Editorial Supervision
Charles Norbeck Compilation, Discographical Annotation
Alessandra Quaranta Photo Research
Marc Salata Product Manager
Dave Schultz Remastering
Dan Hersch Remastering
Bill Inglot Remastering
Jerry Leiber Original Recording Producer
Herb Abramson Original Recording Producer
Ahmet Ertegun Original Recording Producer


Трекер:  [ 20-Фев-2012 09:37 ]

  

Скачать .torrent

Размер .torrent файла 15 KB


Размер: 355 MB
Хэш (hash) релиза: ad9251ca0ef20fb99d690a038fc4ca11015fc905

Еще никто не оставлял запись к записи скачать торрент Ruth Brown - The Definitive Soul Collection . Будь первым!

!Обратная связь