Скачать через торрент музыку Kansas City Kitty & Georgia Tom - Vocal Duets бесплатно без регистрации torrent

Если у вас наблюдаются проблемы со скриншотами, переходом по ссылками, скачиванием торрентов - проблемы в блокировщике рекламы AdBlock. #хорошегоДня!


Статистика раздачи
Размер:  185 MB   |    Зарегистрирован:  5 лет 8 месяцев   |    .torrent скачан:  23 раза   |   
Раздают:  1  
   
Загрузка...
 
Автор Сообщение

Umakiro

avatar Umakiro


Kansas City Kitty & Georgia Tom - Vocal Duets (1930-1934) Document Records

Жанр: blues
Год выпуска диска: 2008
Производитель диска: UK Document Records
Аудио кодек: FLAC
Тип рипа: image+.cue
Битрейт аудио: lossless
Продолжительность: 56:28
Источник: авакс, спасибо mfrwiz
Трэклист:
01. You Got That Stuff
02. Doctor's Blues
03. Do It by Myself
04. Fish House Blues
05. Room Rent Blues
06. Show Me What You Got
07. Killing Floor Blues
08. How Can You Have the Blues
09. Who's Been Here Since I've Been Gone
10. Gym's Too Much for Me
11. When Can I Get It
12. That Thing's a Mess
13. Root Man Blues
14. Close Made Papa
15. Scronchin'
16. What a Fool I've Been
17. Christmas Morning Blues
18. Double Trouble Blues
19. Leave My Man Alone
20. Mistreatin' Easy Rider
Доп. информация:
Exact Audio Copy V0.99 prebeta 4 from 23. January 2008

EAC extraction logfile from 3. April 2009, 21:04

- / -

Used drive : Pioneer BDR-203BK Adapter: 7 ID: 0

Read mode : Secure
Utilize accurate stream : Yes
Defeat audio cache : Yes
Make use of C2 pointers : No

Read offset correction : 6
Overread into Lead-In and Lead-Out : No
Fill up missing offset samples with silence : Yes
Delete leading and trailing silent blocks : No
Null samples used in CRC calculations : Yes
Used interface : Native Win32 interface for Win NT & 2000

Used output format : User Defined Encoder
Selected bitrate : 128 kBit/s
Quality : High
Add ID3 tag : No
Command line compressor : C:\Programmi\Exact Audio Copy\FLAC\FLAC.EXE
Additional command line options : -5 -V -T "ARTIST=%a" -T "TITLE=%t" -T "ALBUM=%g" -T "DATE=%y" -T "TRACKNUMBER=%n" -T "GENRE=%m" -T "COMMENT=%e" %s -o %d

TOC of the extracted CD

Track | Start | Length | Start sector | End sector
---------------------------------------------------------
1 | 0:00.00 | 2:49.70 | 0 | 12744
2 | 2:49.70 | 2:40.37 | 12745 | 24781
3 | 5:30.32 | 2:28.68 | 24782 | 35949
4 | 7:59.25 | 2:26.10 | 35950 | 46909
5 | 10:25.35 | 2:30.57 | 46910 | 58216
6 | 12:56.17 | 3:13.13 | 58217 | 72704
7 | 16:09.30 | 2:34.47 | 72705 | 84301
8 | 18:44.02 | 2:54.10 | 84302 | 97361
9 | 21:38.12 | 2:59.10 | 97362 | 110796
10 | 24:37.22 | 2:38.65 | 110797 | 122711
11 | 27:16.12 | 2:26.63 | 122712 | 133724
12 | 29:43.00 | 2:38.17 | 133725 | 145591
13 | 32:21.17 | 2:42.48 | 145592 | 157789
14 | 35:03.65 | 2:42.70 | 157790 | 170009
15 | 37:46.60 | 2:47.07 | 170010 | 182541
16 | 40:33.67 | 3:03.58 | 182542 | 196324
17 | 43:37.50 | 3:15.05 | 196325 | 210954
18 | 46:52.55 | 3:11.40 | 210955 | 225319
19 | 50:04.20 | 3:09.57 | 225320 | 239551
20 | 53:14.02 | 3:13.48 | 239552 | 254074

Range status and errors

Selected range

Filename F:\Downloads\uTorrent\Completati\Kansas City Kitty & Georgia Tom - Vocal Duets (1930-1934)\t\Kansas City Kitty & Georgia Tom - Vocal Duets.wav

Peak level 92.9 %
Range quality 100.0 %
Copy CRC 6F14E82D
Copy OK

No errors occurred

End of status report
-----------------------

DON'T MODIFY THIS FILE

-----------------------

PERFORMER: auCDtect Task Manager, ver. 0.9.9 RC9 build 0.9.9.9
Copyright (c) 2008, 2009 y-soft. All rights reserved

ANALYZER: auCDtect: CD records authenticity detector, version 0.8.2
Copyright (c) 2004 Oleg Berngardt. All rights reserved.
Copyright (c) 2004 Alexander Djourik. All rights reserved.

FILE: Kansas City Kitty & Georgia Tom - Vocal Duets.flac
Size: 189361980 Hash: BD2E581C0B4E9B96E4A908BA46EF1B6D Accuracy: -m8
Conclusion: CDDA 100%
Signature: 8706211C437BD20FE4B20BF7454A6282AD28B4C6


Трекер:  [ 20-Фев-2012 09:36 ]

  

Скачать .torrent

Размер .torrent файла 15 KB


Размер: 185 MB
Хэш (hash) релиза: 06066a96367b1e352b0d37b4a60c0b09e9a303a1

Еще никто не оставлял запись к записи скачать торрент Kansas City Kitty & Georgia Tom - Vocal Duets . Будь первым!

!Обратная связь