Скачать через торрент музыку Montreal Jubilation Gospel Choir - Jubilation IV: A Cappella - 1992, FLAC бесплатно без регистрации torrent

Если у вас наблюдаются проблемы со скриншотами, переходом по ссылками, скачиванием торрентов - проблемы в блокировщике рекламы AdBlock. #хорошегоДня!


Статистика раздачи
Размер:  169 MB   |    Зарегистрирован:  5 лет 8 месяцев   |    .torrent скачан:  24 раза   |   
Раздают:  1  
   
Загрузка...
 
Автор Сообщение

Umakiro

avatar Umakiro


Montreal Jubilation Gospel Choir - Jubilation IV: A Cappella (1992)

Жанр: Gospel, Acapella, Religious
Страна-производитель диска: USA
Год издания диска: 1992
Издатель (лейбл): Blues Beacon
Номер по каталогу: BLU 10142
Страна: Canada
Аудиокодек: FLAC (*.flac)
Тип рипа: tracks+.cue
Битрейт аудио: lossless
Продолжительность: 00:33:30
Источник (релизер): рип мой, CD тоже.
Наличие сканов в содержимом раздачи: нет
Треклист:

01. Lord I Know I've Been Changed (2:35)
02. There is a Balm in Gilead (3:11)
03. Ezekiel Saw the Wheel (2:43)
04. Deep River (2:23)
05. In That Great Getting Up Morning (1:44)
06. Swing Low, Sweet Chariot (1:48)
07. Soon Ah Will Be Done (3:34)
08. Every Time I Feel the Spirit (2:04)
09. Steal Away (4:16)
10. In That Morning When the Lord Says Hurry (1:56)
11. The`Storm Is Passing Over (2:29)
12. Ain't Got Time To Die (2:16)
13. Joshua Fit the Battle of Jericho (2:32)
 
Exact Audio Copy V1.0 beta 1 from 15. November 2010

EAC extraction logfile from 27. January 2012, 21:55

Montreal Jubilation Gospel Choir / Jubilation IV ~ A Cappella

Used drive : SONY DVD RW DRX-S70U Adapter: 1 ID: 0

Read mode : SecureUtilize accurate stream : YesDefeat audio cache : YesMake use of C2 pointers : No

Read offset correction : 48Overread into Lead-In and Lead-Out : NoFill up missing offset samples with silence : YesDelete leading and trailing silent blocks : NoNull samples used in CRC calculations : YesUsed interface : Native Win32 interface for Win NT & 2000Gap handling : Appended to previous track

Used output format : User Defined EncoderSelected bitrate : 256 kBit/sQuality : HighAdd ID3 tag : NoCommand line compressor : H:\Program Files\Exact Audio Copy\FLAC\FLAC.EXEAdditional command line options : -8 -V -T "ARTIST=%a" -T "TITLE=%t" -T "ALBUM=%g" -T "DATE=%y" -T "TRACKNUMBER=%n" -T "TOTALTRACKS=%x" -T "GENRE=%m" -T "ALBUMARTIST=%v" -T "ALBUM ARTIST=%v" -T "COMMENT=EAC Secure Mode, Test & Copy, AccurateRip, FLAC -8" %s

TOC of the extracted CD

Track | Start | Length | Start sector | End sector --------------------------------------------------------- 1 | 0:00.00 | 2:34.65 | 0 | 11614 2 | 2:34.65 | 3:10.62 | 11615 | 25926 3 | 5:45.52 | 2:42.68 | 25927 | 38144 4 | 8:28.45 | 2:23.20 | 38145 | 48889 5 | 10:51.65 | 1:43.40 | 48890 | 56654 6 | 12:35.30 | 1:48.20 | 56655 | 64774 7 | 14:23.50 | 3:34.25 | 64775 | 80849 8 | 17:58.00 | 2:04.20 | 80850 | 90169 9 | 20:02.20 | 4:16.20 | 90170 | 109389 10 | 24:18.40 | 1:55.62 | 109390 | 118076 11 | 26:14.27 | 2:28.55 | 118077 | 129231 12 | 28:43.07 | 2:15.55 | 129232 | 139411 13 | 30:58.62 | 2:31.38 | 139412 | 150774

Track 1

Filename E:\PMusic\Montreal Jubilation Gospel Choir - Jubilation IV ~ A Cappella (1992) [FLAC] {Blues Beacon, BLU 10142, USA, 1992}\01 - Lord I Know I've Been Changed.wav

Pre-gap length 0:00:02.00

Peak level 95.1 % Extraction speed 2.3 X Track quality 100.0 % Test CRC EA6AD820 Copy CRC EA6AD820 Track not present in AccurateRip database Copy OK

Track 2

Filename E:\PMusic\Montreal Jubilation Gospel Choir - Jubilation IV ~ A Cappella (1992) [FLAC] {Blues Beacon, BLU 10142, USA, 1992}\02 - There is a Balm in Gilead.wav

Pre-gap length 0:00:04.10

Peak level 91.7 % Extraction speed 2.7 X Track quality 100.0 % Test CRC 74790BDE Copy CRC 74790BDE Track not present in AccurateRip database Copy OK

Track 3

Filename E:\PMusic\Montreal Jubilation Gospel Choir - Jubilation IV ~ A Cappella (1992) [FLAC] {Blues Beacon, BLU 10142, USA, 1992}\03 - Ezekiel Saw the Wheel.wav

Pre-gap length 0:00:03.67

Peak level 95.5 % Extraction speed 2.2 X Track quality 99.9 % Test CRC D5969357 Copy CRC D5969357 Track not present in AccurateRip database Copy OK

Track 4

Filename E:\PMusic\Montreal Jubilation Gospel Choir - Jubilation IV ~ A Cappella (1992) [FLAC] {Blues Beacon, BLU 10142, USA, 1992}\04 - Deep River.wav

Pre-gap length 0:00:02.35

Peak level 95.8 % Extraction speed 2.8 X Track quality 100.0 % Test CRC FCCAE2A2 Copy CRC FCCAE2A2 Track not present in AccurateRip database Copy OK

Track 5

Filename E:\PMusic\Montreal Jubilation Gospel Choir - Jubilation IV ~ A Cappella (1992) [FLAC] {Blues Beacon, BLU 10142, USA, 1992}\05 - In That Great Getting Up Morning.wav

Pre-gap length 0:00:03.35

Peak level 93.9 % Extraction speed 2.7 X Track quality 100.0 % Test CRC B96A53FA Copy CRC B96A53FA Track not present in AccurateRip database Copy OK

Track 6

Filename E:\PMusic\Montreal Jubilation Gospel Choir - Jubilation IV ~ A Cappella (1992) [FLAC] {Blues Beacon, BLU 10142, USA, 1992}\06 - Swing Low, Sweet Chariot.wav

Pre-gap length 0:00:03.32

Peak level 94.0 % Extraction speed 2.1 X Track quality 99.9 % Test CRC 43703903 Copy CRC 43703903 Track not present in AccurateRip database Copy OK

Track 7

Filename E:\PMusic\Montreal Jubilation Gospel Choir - Jubilation IV ~ A Cappella (1992) [FLAC] {Blues Beacon, BLU 10142, USA, 1992}\07 - Soon Ah Will Be Done.wav

Pre-gap length 0:00:03.02

Peak level 96.4 % Extraction speed 3.5 X Track quality 100.0 % Test CRC A18D75FB Copy CRC A18D75FB Track not present in AccurateRip database Copy OK

Track 8

Filename E:\PMusic\Montreal Jubilation Gospel Choir - Jubilation IV ~ A Cappella (1992) [FLAC] {Blues Beacon, BLU 10142, USA, 1992}\08 - Every Time I Feel the Spirit.wav

Pre-gap length 0:00:02.15

Peak level 94.8 % Extraction speed 3.3 X Track quality 100.0 % Test CRC 82B7A643 Copy CRC 82B7A643 Track not present in AccurateRip database Copy OK

Track 9

Filename E:\PMusic\Montreal Jubilation Gospel Choir - Jubilation IV ~ A Cappella (1992) [FLAC] {Blues Beacon, BLU 10142, USA, 1992}\09 - Steal Away.wav

Pre-gap length 0:00:03.37

Peak level 94.3 % Extraction speed 3.9 X Track quality 100.0 % Test CRC B5FB2925 Copy CRC B5FB2925 Track not present in AccurateRip database Copy OK

Track 10

Filename E:\PMusic\Montreal Jubilation Gospel Choir - Jubilation IV ~ A Cappella (1992) [FLAC] {Blues Beacon, BLU 10142, USA, 1992}\10 - In That Morning When the Lord Says Hurry.wav

Pre-gap length 0:00:03.10

Peak level 92.8 % Extraction speed 3.4 X Track quality 100.0 % Test CRC A68E1617 Copy CRC A68E1617 Track not present in AccurateRip database Copy OK

Track 11

Filename E:\PMusic\Montreal Jubilation Gospel Choir - Jubilation IV ~ A Cappella (1992) [FLAC] {Blues Beacon, BLU 10142, USA, 1992}\11 - The`Storm Is Passing Over.wav

Pre-gap length 0:00:04.54

Peak level 92.3 % Extraction speed 1.9 X Track quality 99.8 % Test CRC E751E084 Copy CRC E751E084 Track not present in AccurateRip database Copy OK

Track 12

Filename E:\PMusic\Montreal Jubilation Gospel Choir - Jubilation IV ~ A Cappella (1992) [FLAC] {Blues Beacon, BLU 10142, USA, 1992}\12 - Ain't Got Time To Die.wav

Pre-gap length 0:00:01.67

Peak level 95.2 % Extraction speed 3.8 X Track quality 100.0 % Test CRC 6E827B8D Copy CRC 6E827B8D Track not present in AccurateRip database Copy OK

Track 13

Filename E:\PMusic\Montreal Jubilation Gospel Choir - Jubilation IV ~ A Cappella (1992) [FLAC] {Blues Beacon, BLU 10142, USA, 1992}\13 - Joshua Fit the Battle of Jericho.wav

Pre-gap length 0:00:03.14

Peak level 94.7 % Extraction speed 4.0 X Track quality 100.0 % Test CRC B843CA13 Copy CRC B843CA13 Track not present in AccurateRip database Copy OK

None of the tracks are present in the AccurateRip database

No errors occurred

End of status report

==== Log checksum 6A576748047121C460DDEB93CA0C0CC29E852797A9ACEF826B9B6EA01150363D ====
 
REM GENRE GospelREM DATE 1992REM DISCID A207DA0DREM COMMENT "ExactAudioCopy v1.0b1"PERFORMER "Montreal Jubilation Gospel Choir"TITLE "Jubilation IV ~ A Cappella"FILE "01 - Lord I Know I've Been Changed.wav" WAVE TRACK 01 AUDIO TITLE "Lord I Know I've Been Changed" PERFORMER "Montreal Jubilation Gospel Choir" INDEX 01 00:00:00 TRACK 02 AUDIO TITLE "There is a Balm in Gilead" PERFORMER "Montreal Jubilation Gospel Choir" INDEX 00 02:30:55FILE "02 - There is a Balm in Gilead.wav" WAVE INDEX 01 00:00:00 TRACK 03 AUDIO TITLE "Ezekiel Saw the Wheel" PERFORMER "Montreal Jubilation Gospel Choir" INDEX 00 03:06:70FILE "03 - Ezekiel Saw the Wheel.wav" WAVE INDEX 01 00:00:00 TRACK 04 AUDIO TITLE "Deep River" PERFORMER "Montreal Jubilation Gospel Choir" INDEX 00 02:40:33FILE "04 - Deep River.wav" WAVE INDEX 01 00:00:00 TRACK 05 AUDIO TITLE "In That Great Getting Up Morning" PERFORMER "Montreal Jubilation Gospel Choir" INDEX 00 02:19:60FILE "05 - In That Great Getting Up Morning.wav" WAVE INDEX 01 00:00:00 TRACK 06 AUDIO TITLE "Swing Low, Sweet Chariot" PERFORMER "Montreal Jubilation Gospel Choir" INDEX 00 01:40:08FILE "06 - Swing Low, Sweet Chariot.wav" WAVE INDEX 01 00:00:00 TRACK 07 AUDIO TITLE "Soon Ah Will Be Done" PERFORMER "Montreal Jubilation Gospel Choir" INDEX 00 01:45:18FILE "07 - Soon Ah Will Be Done.wav" WAVE INDEX 01 00:00:00 TRACK 08 AUDIO TITLE "Every Time I Feel the Spirit" PERFORMER "Montreal Jubilation Gospel Choir" INDEX 00 03:32:10FILE "08 - Every Time I Feel the Spirit.wav" WAVE INDEX 01 00:00:00 TRACK 09 AUDIO TITLE "Steal Away" PERFORMER "Montreal Jubilation Gospel Choir" INDEX 00 02:00:58FILE "09 - Steal Away.wav" WAVE INDEX 01 00:00:00 TRACK 10 AUDIO TITLE "In That Morning When the Lord Says Hurry" PERFORMER "Montreal Jubilation Gospel Choir" INDEX 00 04:13:10FILE "10 - In That Morning When the Lord Says Hurry.wav" WAVE INDEX 01 00:00:00 TRACK 11 AUDIO TITLE "The`Storm Is Passing Over" PERFORMER "Montreal Jubilation Gospel Choir" INDEX 00 01:51:08FILE "11 - The`Storm Is Passing Over.wav" WAVE INDEX 01 00:00:00 TRACK 12 AUDIO TITLE "Ain't Got Time To Die" PERFORMER "Montreal Jubilation Gospel Choir" INDEX 00 02:26:63FILE "12 - Ain't Got Time To Die.wav" WAVE INDEX 01 00:00:00 TRACK 13 AUDIO TITLE "Joshua Fit the Battle of Jericho" PERFORMER "Montreal Jubilation Gospel Choir" INDEX 00 02:12:41FILE "13 - Joshua Fit the Battle of Jericho.wav" WAVE INDEX 01 00:00:00
MJGC has recorded nine discs, several of which have won prestigious awards. Included among these is a 1995 Juno award for Jubilation V: Joy to the World. The Association of Gospel Music Ministries named the choir its outstanding recording artist in 1987, and best choral ensemble in 1989, when it also won for best gospel album. It was also named vocal group of the year by Jazz Report, 1993-5.

The choir's repertoire focuses on gospel music, both traditional and contemporary, some of which has been retained from MJGC's earlier incarnation as the Montreal Black Community Youth Choir (MBCYC). Pieces such as "Changed," "Goin' Up Yonder," Geographical Fugue for Speaking Chorus, "Oh, Mary Don't You Weep," "The Storm is Passing Over," "How I Got Over," "To the Glory of God," "In That Morning," "Swing Low, Sweet Chariot," "Soon Ah Will Be Done," "Joshua Fit the Battle of Jericho," "Plenty Good Room," and "O Happy Day" were first recorded by MBCYC and remain present in MJGC's recordings. To this core repertoire, MJGC has added a mix of music ranging from Gregorian chant to Bach chorales, a modern jazz oratorio, and traditional Zulu music. (The Canadian Encyclopedia © 2012 Historica Foundation of Canada)

official site - http://jubilationchoir.com/


Трекер:  [ 20-Фев-2012 09:34 ]

  

Скачать .torrent

Размер .torrent файла 15 KB


Размер: 169 MB
Хэш (hash) релиза: 9f32b9b6180569b60ac50e373f8edc42498bf6c8

Еще никто не оставлял запись к записи скачать торрент Montreal Jubilation Gospel Choir - Jubilation IV: A Cappella - 1992, FLAC . Будь первым!

!Обратная связь