Скачать через торрент музыку Etta James-The Chess Box Set - 2000, FLAC бесплатно без регистрации torrent

Если у вас наблюдаются проблемы со скриншотами, переходом по ссылками, скачиванием торрентов - проблемы в блокировщике рекламы AdBlock. #хорошегоДня!


Статистика раздачи
Размер:  1.36 GB   |    Зарегистрирован:  5 лет 8 месяцев   |    .torrent скачан:  43 раза   |   
Раздают:  1  
   
Загрузка...
 
Автор Сообщение

Umakiro

avatar Umakiro


Etta James-The Chess Box Set

Жанр: Blues/Soul-Blues
Год выпуска диска: 2000
Производитель диска: usa
Аудио кодек: FLAC
Тип рипа: tracks+.cue
Битрейт аудио: lossless
Продолжительность: 3:49:10
Трэклист:
01. All I Could Do Is Cry
02. My Dearest Darling
03. If I Can't Have You
04. I Just Want to Make Love To You
05. Anything to Say You're Mine
06. In My Diary
07. Spoonful
08. A Sunday Kind of Love
09. At Last
10. Stormy Weather
11. Trust In Me
12. Don't Cry Baby
13. Fool That I Am
14. One For My Baby (And One More For the Road)
15. Waiting for Charlie (to Come Home)
16. Don't Get Around Much Anymore
17. Next Door to the Blues
18. I Don't Want It
19. Something's Got a Hold On Me
20. Stop the Wedding
21. These Foolish Things (Remind Me of You)
22. You Got Me Where You Want Me
23. I Want to Be Loved (But Only By You)
24. Prisoner of Love
25. Pushover
26. Be Honest With Me
Exact Audio Copy V0.99 prebeta 4 from 23. January 2008

EAC extraction logfile from 11. September 2008, 0:50

Etta James / The Chess Box Set (CD1)

Used drive : PLEXTOR CD-R PX-240A Adapter: 1 ID: 1

Read mode : Secure
Utilize accurate stream : Yes
Defeat audio cache : Yes
Make use of C2 pointers : No

Read offset correction : 6
Overread into Lead-In and Lead-Out : No
Fill up missing offset samples with silence : Yes
Delete leading and trailing silent blocks : No
Null samples used in CRC calculations : Yes
Used interface : Native Win32 interface for Win NT & 2000
Gap handling : Appended to previous track

Used output format : User Defined Encoder
Selected bitrate : 160 kBit/s
Quality : High
Add ID3 tag : No
Command line compressor : C:\Program Files\FLAC\flac.exe
Additional command line options : -5 -V -T "ARTIST=%a" -T "TITLE=%t" -T "ALBUM=%g" -T "TRACKNUMBER=%n" -T "GENRE=%m" %s

TOC of the extracted CD

Track | Start | Length | Start sector | End sector
---------------------------------------------------------
1 | 0:00.00 | 2:57.50 | 0 | 13324
2 | 2:57.50 | 3:04.70 | 13325 | 27194
3 | 6:02.45 | 3:01.50 | 27195 | 40819
4 | 9:04.20 | 3:08.55 | 40820 | 54974
5 | 12:13.00 | 2:37.20 | 54975 | 66769
6 | 14:50.20 | 2:37.02 | 66770 | 78546
7 | 17:27.22 | 2:49.03 | 78547 | 91224
8 | 20:16.25 | 3:18.50 | 91225 | 106124
9 | 23:35.00 | 3:02.25 | 106125 | 119799
10 | 26:37.25 | 3:10.20 | 119800 | 134069
11 | 29:47.45 | 3:01.07 | 134070 | 147651
12 | 32:48.52 | 2:27.33 | 147652 | 158709
13 | 35:16.10 | 2:59.67 | 158710 | 172201
14 | 38:16.02 | 3:29.43 | 172202 | 187919
15 | 41:45.45 | 2:08.70 | 187920 | 197589
16 | 43:54.40 | 2:28.20 | 197590 | 208709
17 | 46:22.60 | 2:51.20 | 208710 | 221554
18 | 49:14.05 | 2:20.72 | 221555 | 232126
19 | 51:35.02 | 2:50.15 | 232127 | 244891
20 | 54:25.17 | 2:53.08 | 244892 | 257874
21 | 57:18.25 | 4:01.10 | 257875 | 275959
22 | 61:19.35 | 2:53.32 | 275960 | 288966
23 | 64:12.67 | 3:27.03 | 288967 | 304494
24 | 67:39.70 | 2:15.57 | 304495 | 314676
25 | 69:55.52 | 2:57.20 | 314677 | 327971
26 | 72:52.72 | 3:05.40 | 327972 | 341886

Track 1

Filename K:\+-+ CD rips +-+\WAV rips\01 - All I Could Do Is Cry.wav

Pre-gap length 0:00:02.00

Peak level 93.3 %
Track quality 99.9 %
Test CRC EA442A7F
Copy CRC EA442A7F
Copy OK

Track 2

Filename K:\+-+ CD rips +-+\WAV rips\02 - My Dearest Darling.wav

Pre-gap length 0:00:02.57

Peak level 98.8 %
Track quality 99.9 %
Test CRC 81EB3107
Copy CRC 81EB3107
Copy OK

Track 3

Filename K:\+-+ CD rips +-+\WAV rips\03 - If I Can't Have You.wav

Pre-gap length 0:00:02.57

Peak level 95.2 %
Track quality 99.9 %
Test CRC 40CF64E2
Copy CRC 40CF64E2
Copy OK

Track 4

Filename K:\+-+ CD rips +-+\WAV rips\04 - I Just Want to Make Love To You.wav

Pre-gap length 0:00:02.57

Peak level 98.2 %
Track quality 100.0 %
Test CRC C277216D
Copy CRC C277216D
Copy OK

Track 5

Filename K:\+-+ CD rips +-+\WAV rips\05 - Anything to Say You're Mine.wav

Pre-gap length 0:00:02.57

Peak level 98.8 %
Track quality 100.0 %
Test CRC 6BB3CCE0
Copy CRC 6BB3CCE0
Copy OK

Track 6

Filename K:\+-+ CD rips +-+\WAV rips\06 - In My Diary.wav

Pre-gap length 0:00:02.57

Peak level 98.8 %
Track quality 100.0 %
Test CRC 9BBD2EBE
Copy CRC 9BBD2EBE
Copy OK

Track 7

Filename K:\+-+ CD rips +-+\WAV rips\07 - Spoonful.wav

Pre-gap length 0:00:02.56

Peak level 98.3 %
Track quality 100.0 %
Test CRC 153633CE
Copy CRC 153633CE
Copy OK

Track 8

Filename K:\+-+ CD rips +-+\WAV rips\08 - A Sunday Kind of Love.wav

Pre-gap length 0:00:02.57

Peak level 98.8 %
Track quality 100.0 %
Test CRC 9DD2A041
Copy CRC 9DD2A041
Copy OK

Track 9

Filename K:\+-+ CD rips +-+\WAV rips\09 - At Last.wav

Pre-gap length 0:00:02.57

Peak level 98.0 %
Track quality 100.0 %
Test CRC 164F35FE
Copy CRC 164F35FE
Copy OK

Track 10

Filename K:\+-+ CD rips +-+\WAV rips\10 - Stormy Weather.wav

Pre-gap length 0:00:02.57

Peak level 97.9 %
Track quality 99.9 %
Test CRC 2C7D6300
Copy CRC 2C7D6300
Copy OK

Track 11

Filename K:\+-+ CD rips +-+\WAV rips\11 - Trust In Me.wav

Pre-gap length 0:00:02.57

Peak level 94.8 %
Track quality 100.0 %
Test CRC 6DDF602B
Copy CRC 6DDF602B
Copy OK

Track 12

Filename K:\+-+ CD rips +-+\WAV rips\12 - Don't Cry Baby.wav

Pre-gap length 0:00:02.56

Peak level 98.0 %
Track quality 99.9 %
Test CRC FB02E4AF
Copy CRC FB02E4AF
Copy OK

Track 13

Filename K:\+-+ CD rips +-+\WAV rips\13 - Fool That I Am.wav

Pre-gap length 0:00:02.57

Peak level 98.8 %
Track quality 100.0 %
Test CRC 950A7E67
Copy CRC 950A7E67
Copy OK

Track 14

Filename K:\+-+ CD rips +-+\WAV rips\14 - One For My Baby (And One More For the Road).wav

Pre-gap length 0:00:02.56

Peak level 94.8 %
Track quality 100.0 %
Test CRC DC1F82F1
Copy CRC DC1F82F1
Copy OK

Track 15

Filename K:\+-+ CD rips +-+\WAV rips\15 - Waiting for Charlie (to Come Home).wav

Pre-gap length 0:00:02.57

Peak level 98.1 %
Track quality 100.0 %
Test CRC 0594341E
Copy CRC 0594341E
Copy OK

Track 16

Filename K:\+-+ CD rips +-+\WAV rips\16 - Don't Get Around Much Anymore.wav

Pre-gap length 0:00:02.57

Peak level 98.1 %
Track quality 100.0 %
Test CRC 1D7C038E
Copy CRC 1D7C038E
Copy OK

Track 17

Filename K:\+-+ CD rips +-+\WAV rips\17 - Next Door to the Blues.wav

Pre-gap length 0:00:02.57

Peak level 95.0 %
Track quality 100.0 %
Test CRC 8158366D
Copy CRC 8158366D
Copy OK

Track 18

Filename K:\+-+ CD rips +-+\WAV rips\18 - I Don't Want It.wav

Pre-gap length 0:00:02.57

Peak level 98.8 %
Track quality 100.0 %
Test CRC 854A7FB2
Copy CRC 854A7FB2
Copy OK

Track 19

Filename K:\+-+ CD rips +-+\WAV rips\19 - Something's Got a Hold On Me.wav

Pre-gap length 0:00:02.56

Peak level 93.9 %
Track quality 100.0 %
Test CRC 6630174E
Copy CRC 6630174E
Copy OK

Track 20

Filename K:\+-+ CD rips +-+\WAV rips\20 - Stop the Wedding.wav

Pre-gap length 0:00:02.56

Peak level 98.2 %
Track quality 100.0 %
Test CRC 7B6DCD8A
Copy CRC 7B6DCD8A
Copy OK

Track 21

Filename K:\+-+ CD rips +-+\WAV rips\21 - These Foolish Things (Remind Me of You).wav

Pre-gap length 0:00:02.57

Peak level 94.8 %
Track quality 100.0 %
Test CRC 46B036C8
Copy CRC 46B036C8
Copy OK

Track 22

Filename K:\+-+ CD rips +-+\WAV rips\22 - You Got Me Where You Want Me.wav

Pre-gap length 0:00:02.57

Peak level 98.7 %
Track quality 100.0 %
Test CRC 7BA4A472
Copy CRC 7BA4A472
Copy OK

Track 23

Filename K:\+-+ CD rips +-+\WAV rips\23 - I Want to Be Loved (But Only By You).wav

Pre-gap length 0:00:02.56

Peak level 94.9 %
Track quality 100.0 %
Test CRC 85ACD7AE
Copy CRC 85ACD7AE
Copy OK

Track 24

Filename K:\+-+ CD rips +-+\WAV rips\24 - Prisoner of Love.wav

Pre-gap length 0:00:02.57

Peak level 98.8 %
Track quality 100.0 %
Test CRC 18DD0CA1
Copy CRC 18DD0CA1
Copy OK

Track 25

Filename K:\+-+ CD rips +-+\WAV rips\25 - Pushover.wav

Pre-gap length 0:00:02.56

Peak level 98.8 %
Track quality 100.0 %
Test CRC 9CCC52A3
Copy CRC 9CCC52A3
Copy OK

Track 26

Filename K:\+-+ CD rips +-+\WAV rips\26 - Be Honest With Me.wav

Pre-gap length 0:00:02.56

Peak level 98.8 %
Track quality 100.0 %
Test CRC 1B816B52
Copy CRC 1B816B52
Copy OK

No errors occurred

End of status report
AUDIOCHECKER v2.0 beta (build 457) - by Dester - opdester@freemail.hu
~~~~~~~~~~~~~~~~~~~~~~~~~~~~~~~~~~

Started at: вторник, 17. 03. 2009. - 0:38.23
26 files found

01 -===- E:\Новая папка (3)\2000 - Etta James - The Chess Box {flac}\CD1\01 - All I Could Do Is Cry.flac
Extracted successfully
Conclusion: this track is CDDA with probability 100%
Tempfile successfully deleted.

02 -===- E:\Новая папка (3)\2000 - Etta James - The Chess Box {flac}\CD1\02 - My Dearest Darling.flac
Extracted successfully
Conclusion: this track is CDDA with probability 100%
Tempfile successfully deleted.

03 -===- E:\Новая папка (3)\2000 - Etta James - The Chess Box {flac}\CD1\03 - If I Can't Have You.flac
Extracted successfully
Conclusion: this track is CDDA with probability 100%
Tempfile successfully deleted.

04 -===- E:\Новая папка (3)\2000 - Etta James - The Chess Box {flac}\CD1\04 - I Just Want to Make Love To You.flac
Extracted successfully
Conclusion: this track is CDDA with probability 100%
Tempfile successfully deleted.

05 -===- E:\Новая папка (3)\2000 - Etta James - The Chess Box {flac}\CD1\05 - Anything to Say You're Mine.flac
Extracted successfully
Conclusion: this track is CDDA with probability 100%
Tempfile successfully deleted.

06 -===- E:\Новая папка (3)\2000 - Etta James - The Chess Box {flac}\CD1\06 - In My Diary.flac
Extracted successfully
Conclusion: this track is CDDA with probability 100%
Tempfile successfully deleted.

07 -===- E:\Новая папка (3)\2000 - Etta James - The Chess Box {flac}\CD1\07 - Spoonful.flac
Extracted successfully
Conclusion: this track is CDDA with probability 100%
Tempfile successfully deleted.

08 -===- E:\Новая папка (3)\2000 - Etta James - The Chess Box {flac}\CD1\08 - A Sunday Kind of Love.flac
Extracted successfully
Conclusion: this track is CDDA with probability 100%
Tempfile successfully deleted.

09 -===- E:\Новая папка (3)\2000 - Etta James - The Chess Box {flac}\CD1\09 - At Last.flac
Extracted successfully
Conclusion: this track is CDDA with probability 99%
Tempfile successfully deleted.

10 -===- E:\Новая папка (3)\2000 - Etta James - The Chess Box {flac}\CD1\10 - Stormy Weather.flac
Extracted successfully
Conclusion: this track is CDDA with probability 100%
Tempfile successfully deleted.

11 -===- E:\Новая папка (3)\2000 - Etta James - The Chess Box {flac}\CD1\11 - Trust In Me.flac
Extracted successfully
Conclusion: this track is CDDA with probability 100%
Tempfile successfully deleted.

12 -===- E:\Новая папка (3)\2000 - Etta James - The Chess Box {flac}\CD1\12 - Don't Cry Baby.flac
Extracted successfully
Conclusion: this track is CDDA with probability 100%
Tempfile successfully deleted.

13 -===- E:\Новая папка (3)\2000 - Etta James - The Chess Box {flac}\CD1\13 - Fool That I Am.flac
Extracted successfully
Conclusion: this track is CDDA with probability 100%
Tempfile successfully deleted.

14 -===- E:\Новая папка (3)\2000 - Etta James - The Chess Box {flac}\CD1\14 - One For My Baby (And One More For the Road).flac
Extracted successfully
Conclusion: this track is CDDA with probability 100%
Tempfile successfully deleted.

15 -===- E:\Новая папка (3)\2000 - Etta James - The Chess Box {flac}\CD1\15 - Waiting for Charlie (to Come Home).flac
Extracted successfully
Conclusion: this track is CDDA with probability 100%
Tempfile successfully deleted.

16 -===- E:\Новая папка (3)\2000 - Etta James - The Chess Box {flac}\CD1\16 - Don't Get Around Much Anymore.flac
Extracted successfully
Conclusion: this track is CDDA with probability 100%
Tempfile successfully deleted.

17 -===- E:\Новая папка (3)\2000 - Etta James - The Chess Box {flac}\CD1\17 - Next Door to the Blues.flac
Extracted successfully
Conclusion: this track is CDDA with probability 100%
Tempfile successfully deleted.

18 -===- E:\Новая папка (3)\2000 - Etta James - The Chess Box {flac}\CD1\18 - I Don't Want It.flac
Extracted successfully
Conclusion: this track is CDDA with probability 100%
Tempfile successfully deleted.

19 -===- E:\Новая папка (3)\2000 - Etta James - The Chess Box {flac}\CD1\19 - Something's Got a Hold On Me.flac
Extracted successfully
Conclusion: this track is CDDA with probability 100%
Tempfile successfully deleted.

20 -===- E:\Новая папка (3)\2000 - Etta James - The Chess Box {flac}\CD1\20 - Stop the Wedding.flac
Extracted successfully
Conclusion: this track is CDDA with probability 100%
Tempfile successfully deleted.

21 -===- E:\Новая папка (3)\2000 - Etta James - The Chess Box {flac}\CD1\21 - These Foolish Things (Remind Me of You).flac
Extracted successfully
Conclusion: this track is CDDA with probability 100%
Tempfile successfully deleted.

22 -===- E:\Новая папка (3)\2000 - Etta James - The Chess Box {flac}\CD1\22 - You Got Me Where You Want Me.flac
Extracted successfully
Conclusion: this track is CDDA with probability 100%
Tempfile successfully deleted.

23 -===- E:\Новая папка (3)\2000 - Etta James - The Chess Box {flac}\CD1\23 - I Want to Be Loved (But Only By You).flac
Extracted successfully
Conclusion: this track is CDDA with probability 100%
Tempfile successfully deleted.

24 -===- E:\Новая папка (3)\2000 - Etta James - The Chess Box {flac}\CD1\24 - Prisoner of Love.flac
Extracted successfully
Conclusion: this track is CDDA with probability 100%
Tempfile successfully deleted.

25 -===- E:\Новая папка (3)\2000 - Etta James - The Chess Box {flac}\CD1\25 - Pushover.flac
Extracted successfully
Conclusion: this track is CDDA with probability 100%
Tempfile successfully deleted.

26 -===- E:\Новая папка (3)\2000 - Etta James - The Chess Box {flac}\CD1\26 - Be Honest With Me.flac
Extracted successfully
Conclusion: this track is CDDA with probability 100%
Tempfile successfully deleted.

Finished at: вторник, 17. 03. 2009. - 0:47.09 (operation time: 0:08.46)
01. Would It Make Any Difference to You
02. Look Who's Blue
03. Payback
04. Two Sides (To Every Story)
05. At Last (Live)
06. Baby What You Want Me To Do (Live)
07. Lovin' You More Every Day
08. I Wish Someone Would Care
09. Bobby Is His Name
10. Only Time Will Tell
11. (I Don't Need Nobody To Tell Me) How To Treat My Baby
12. In the Basement, Part 1
13. Lover Man (Oh, Where Can He Be?)
14. Do I Make Myself Clear
15. I Prefer You
16. It Must Be Your Love
17. 842-3089 (Call My Name)
18. I'd Rather Go Blind
19. Tell Mama
20. Do Right Woman, Do Right Man
21. Security
22. I Worship the Ground You Walk On
23. You Took It
24. Almost Persuaded
25. You Got It
26. Light My Fire
Exact Audio Copy V0.99 prebeta 4 from 23. January 2008

EAC extraction logfile from 11. September 2008, 19:23

Etta James / The Chess Box Set (CD2)

Used drive : PLEXTOR CD-R PX-240A Adapter: 1 ID: 1

Read mode : Secure
Utilize accurate stream : Yes
Defeat audio cache : Yes
Make use of C2 pointers : No

Read offset correction : 6
Overread into Lead-In and Lead-Out : No
Fill up missing offset samples with silence : Yes
Delete leading and trailing silent blocks : No
Null samples used in CRC calculations : Yes
Used interface : Native Win32 interface for Win NT & 2000
Gap handling : Appended to previous track

Used output format : User Defined Encoder
Selected bitrate : 160 kBit/s
Quality : High
Add ID3 tag : No
Command line compressor : C:\Program Files\FLAC\flac.exe
Additional command line options : -5 -V -T "ARTIST=%a" -T "TITLE=%t" -T "ALBUM=%g" -T "TRACKNUMBER=%n" -T "GENRE=%m" %s

TOC of the extracted CD

Track | Start | Length | Start sector | End sector
---------------------------------------------------------
1 | 0:00.00 | 2:39.27 | 0 | 11951
2 | 2:39.27 | 2:26.10 | 11952 | 22911
3 | 5:05.37 | 2:40.50 | 22912 | 34961
4 | 7:46.12 | 3:03.40 | 34962 | 48726
5 | 10:49.52 | 3:12.45 | 48727 | 63171
6 | 14:02.22 | 4:18.40 | 63172 | 82561
7 | 18:20.62 | 3:22.18 | 82562 | 97729
8 | 21:43.05 | 2:37.05 | 97730 | 109509
9 | 24:20.10 | 3:31.22 | 109510 | 125356
10 | 27:51.32 | 3:23.63 | 125357 | 140644
11 | 31:15.20 | 3:03.15 | 140645 | 154384
12 | 34:18.35 | 2:23.27 | 154385 | 165136
13 | 36:41.62 | 3:54.33 | 165137 | 182719
14 | 40:36.20 | 3:00.72 | 182720 | 196291
15 | 43:37.17 | 3:05.08 | 196292 | 210174
16 | 46:42.25 | 2:59.47 | 210175 | 223646
17 | 49:41.72 | 3:01.15 | 223647 | 237236
18 | 52:43.12 | 2:35.60 | 237237 | 248921
19 | 55:18.72 | 2:23.08 | 248922 | 259654
20 | 57:42.05 | 3:00.25 | 259655 | 273179
21 | 60:42.30 | 2:30.00 | 273180 | 284429
22 | 63:12.30 | 2:26.02 | 284430 | 295381
23 | 65:38.32 | 2:38.15 | 295382 | 307246
24 | 68:16.47 | 3:22.38 | 307247 | 322434
25 | 71:39.10 | 2:26.02 | 322435 | 333386
26 | 74:05.12 | 2:51.23 | 333387 | 346234

Track 1

Filename K:\+-+ CD rips +-+\WAV rips\01 - Would It Make Any Difference to You.wav

Pre-gap length 0:00:02.00

Peak level 98.2 %
Track quality 100.0 %
Test CRC 11714786
Copy CRC 11714786
Copy OK

Track 2

Filename K:\+-+ CD rips +-+\WAV rips\02 - Look Who's Blue.wav

Pre-gap length 0:00:01.56

Peak level 92.3 %
Track quality 99.9 %
Test CRC 4431F126
Copy CRC 4431F126
Copy OK

Track 3

Filename K:\+-+ CD rips +-+\WAV rips\03 - Payback.wav

Pre-gap length 0:00:01.56

Peak level 98.8 %
Track quality 100.0 %
Test CRC 7A4F1749
Copy CRC 7A4F1749
Copy OK

Track 4

Filename K:\+-+ CD rips +-+\WAV rips\04 - Two Sides (To Every Story).wav

Pre-gap length 0:00:01.56

Peak level 98.8 %
Track quality 100.0 %
Test CRC FECDE012
Copy CRC FECDE012
Copy OK

Track 5

Filename K:\+-+ CD rips +-+\WAV rips\05 - At Last (Live).wav

Pre-gap length 0:00:01.56

Peak level 98.8 %
Track quality 99.9 %
Test CRC F62064CD
Copy CRC F62064CD
Copy OK

Track 6

Filename K:\+-+ CD rips +-+\WAV rips\06 - Baby What You Want Me To Do (Live).wav

Pre-gap length 0:00:01.56

Peak level 98.8 %
Track quality 100.0 %
Test CRC 85054A77
Copy CRC 85054A77
Copy OK

Track 7

Filename K:\+-+ CD rips +-+\WAV rips\07 - Lovin' You More Every Day.wav

Pre-gap length 0:00:01.56

Peak level 98.4 %
Track quality 99.9 %
Test CRC B97ECEF2
Copy CRC B97ECEF2
Copy OK

Track 8

Filename K:\+-+ CD rips +-+\WAV rips\08 - I Wish Someone Would Care.wav

Pre-gap length 0:00:01.57

Peak level 98.3 %
Track quality 99.9 %
Test CRC EC02D48C
Copy CRC EC02D48C
Copy OK

Track 9

Filename K:\+-+ CD rips +-+\WAV rips\09 - Bobby Is His Name.wav

Pre-gap length 0:00:01.57

Peak level 98.3 %
Track quality 100.0 %
Test CRC BF900718
Copy CRC BF900718
Copy OK

Track 10

Filename K:\+-+ CD rips +-+\WAV rips\10 - Only Time Will Tell.wav

Pre-gap length 0:00:01.56

Peak level 98.8 %
Track quality 100.0 %
Test CRC AA249D65
Copy CRC AA249D65
Copy OK

Track 11

Filename K:\+-+ CD rips +-+\WAV rips\11 - (I Don't Need Nobody To Tell Me) How To Treat My Baby.wav

Pre-gap length 0:00:01.57

Peak level 98.8 %
Track quality 100.0 %
Test CRC E91126A5
Copy CRC E91126A5
Copy OK

Track 12

Filename K:\+-+ CD rips +-+\WAV rips\12 - In the Basement, Part 1.wav

Pre-gap length 0:00:01.57

Peak level 98.8 %
Track quality 100.0 %
Test CRC EDAA293C
Copy CRC EDAA293C
Copy OK

Track 13

Filename K:\+-+ CD rips +-+\WAV rips\13 - Lover Man (Oh, Where Can He Be ).wav

Pre-gap length 0:00:01.56

Peak level 98.3 %
Track quality 99.9 %
Test CRC F2DDBD48
Copy CRC F2DDBD48
Copy OK

Track 14

Filename K:\+-+ CD rips +-+\WAV rips\14 - Do I Make Myself Clear.wav

Pre-gap length 0:00:01.57

Peak level 98.8 %
Track quality 99.9 %
Test CRC D9DA7750
Copy CRC D9DA7750
Copy OK

Track 15

Filename K:\+-+ CD rips +-+\WAV rips\15 - I Prefer You.wav

Pre-gap length 0:00:01.56

Peak level 98.8 %
Track quality 100.0 %
Test CRC FF19D8D8
Copy CRC FF19D8D8
Copy OK

Track 16

Filename K:\+-+ CD rips +-+\WAV rips\16 - It Must Be Your Love.wav

Peak level 98.6 %
Track quality 99.9 %
Test CRC 356D0A25
Copy CRC 356D0A25
Copy OK

Track 17

Filename K:\+-+ CD rips +-+\WAV rips\17 - 842-3089 (Call My Name).wav

Peak level 98.6 %
Track quality 100.0 %
Test CRC B8ECA061
Copy CRC B8ECA061
Copy OK

Track 18

Filename K:\+-+ CD rips +-+\WAV rips\18 - I'd Rather Go Blind.wav

Pre-gap length 0:00:01.56

Peak level 98.8 %
Track quality 100.0 %
Test CRC 244988F8
Copy CRC 244988F8
Copy OK

Track 19

Filename K:\+-+ CD rips +-+\WAV rips\19 - Tell Mama.wav

Pre-gap length 0:00:01.56

Peak level 98.8 %
Track quality 99.9 %
Test CRC CD5BAFF9
Copy CRC CD5BAFF9
Copy OK

Track 20

Filename K:\+-+ CD rips +-+\WAV rips\20 - Do Right Woman, Do Right Man.wav

Pre-gap length 0:00:01.57

Peak level 98.0 %
Track quality 99.9 %
Test CRC 650D9B28
Copy CRC 650D9B28
Copy OK

Track 21

Filename K:\+-+ CD rips +-+\WAV rips\21 - Security.wav

Pre-gap length 0:00:01.57

Peak level 96.9 %
Track quality 100.0 %
Test CRC DD3CE437
Copy CRC DD3CE437
Copy OK

Track 22

Filename K:\+-+ CD rips +-+\WAV rips\22 - I Worship the Ground You Walk On.wav

Pre-gap length 0:00:01.57

Peak level 98.2 %
Track quality 100.0 %
Test CRC 7CD1C6BD
Copy CRC 7CD1C6BD
Copy OK

Track 23

Filename K:\+-+ CD rips +-+\WAV rips\23 - You Took It.wav

Pre-gap length 0:00:01.56

Peak level 98.4 %
Track quality 100.0 %
Test CRC 844C8381
Copy CRC 844C8381
Copy OK

Track 24

Filename K:\+-+ CD rips +-+\WAV rips\24 - Almost Persuaded.wav

Pre-gap length 0:00:01.56

Peak level 98.6 %
Track quality 100.0 %
Test CRC 25E8AE1B
Copy CRC 25E8AE1B
Copy OK

Track 25

Filename K:\+-+ CD rips +-+\WAV rips\25 - You Got It.wav

Pre-gap length 0:00:01.57

Peak level 98.8 %
Track quality 100.0 %
Test CRC 12F81F26
Copy CRC 12F81F26
Copy OK

Track 26

Filename K:\+-+ CD rips +-+\WAV rips\26 - Light My Fire.wav

Pre-gap length 0:00:01.56

Peak level 98.4 %
Track quality 100.0 %
Test CRC A23EFA82
Copy CRC A23EFA82
Copy OK

No errors occurred

End of status report
AUDIOCHECKER v2.0 beta (build 457) - by Dester - opdester@freemail.hu
~~~~~~~~~~~~~~~~~~~~~~~~~~~~~~~~~~

Started at: вторник, 17. 03. 2009. - 0:48.16
26 files found

01 -===- E:\Новая папка (3)\2000 - Etta James - The Chess Box {flac}\CD2\01 - Would It Make Any Difference to You.flac
Extracted successfully
Conclusion: this track is CDDA with probability 100%
Tempfile successfully deleted.

02 -===- E:\Новая папка (3)\2000 - Etta James - The Chess Box {flac}\CD2\02 - Look Who's Blue.flac
Extracted successfully
Conclusion: this track is CDDA with probability 100%
Tempfile successfully deleted.

03 -===- E:\Новая папка (3)\2000 - Etta James - The Chess Box {flac}\CD2\03 - Payback.flac
Extracted successfully
Conclusion: this track is CDDA with probability 100%
Tempfile successfully deleted.

04 -===- E:\Новая папка (3)\2000 - Etta James - The Chess Box {flac}\CD2\04 - Two Sides (To Every Story).flac
Extracted successfully
Conclusion: this track is CDDA with probability 99%
Tempfile successfully deleted.

05 -===- E:\Новая папка (3)\2000 - Etta James - The Chess Box {flac}\CD2\05 - At Last (Live).flac
Extracted successfully
Conclusion: this track is CDDA with probability 100%
Tempfile successfully deleted.

06 -===- E:\Новая папка (3)\2000 - Etta James - The Chess Box {flac}\CD2\06 - Baby What You Want Me To Do (Live).flac
Extracted successfully
Conclusion: this track is CDDA with probability 100%
Tempfile successfully deleted.

07 -===- E:\Новая папка (3)\2000 - Etta James - The Chess Box {flac}\CD2\07 - Lovin' You More Every Day.flac
Extracted successfully
Conclusion: this track is CDDA with probability 100%
Tempfile successfully deleted.

08 -===- E:\Новая папка (3)\2000 - Etta James - The Chess Box {flac}\CD2\08 - I Wish Someone Would Care.flac
Extracted successfully
Conclusion: this track is CDDA with probability 100%
Tempfile successfully deleted.

09 -===- E:\Новая папка (3)\2000 - Etta James - The Chess Box {flac}\CD2\09 - Bobby Is His Name.flac
Extracted successfully
Conclusion: this track is CDDA with probability 100%
Tempfile successfully deleted.

10 -===- E:\Новая папка (3)\2000 - Etta James - The Chess Box {flac}\CD2\10 - Only Time Will Tell.flac
Extracted successfully
Conclusion: this track is CDDA with probability 100%
Tempfile successfully deleted.

11 -===- E:\Новая папка (3)\2000 - Etta James - The Chess Box {flac}\CD2\11 - (I Don't Need Nobody To Tell Me) How To Treat My Baby.flac
Extracted successfully
Conclusion: this track is CDDA with probability 100%
Tempfile successfully deleted.

12 -===- E:\Новая папка (3)\2000 - Etta James - The Chess Box {flac}\CD2\12 - In the Basement, Part 1.flac
Extracted successfully
Conclusion: this track is CDDA with probability 100%
Tempfile successfully deleted.

13 -===- E:\Новая папка (3)\2000 - Etta James - The Chess Box {flac}\CD2\13 - Lover Man (Oh, Where Can He Be ).flac
Extracted successfully
Conclusion: this track is CDDA with probability 100%
Tempfile successfully deleted.

14 -===- E:\Новая папка (3)\2000 - Etta James - The Chess Box {flac}\CD2\14 - Do I Make Myself Clear.flac
Extracted successfully
Conclusion: this track is CDDA with probability 100%
Tempfile successfully deleted.

15 -===- E:\Новая папка (3)\2000 - Etta James - The Chess Box {flac}\CD2\15 - I Prefer You.flac
Extracted successfully
Conclusion: this track is CDDA with probability 100%
Tempfile successfully deleted.

16 -===- E:\Новая папка (3)\2000 - Etta James - The Chess Box {flac}\CD2\16 - It Must Be Your Love.flac
Extracted successfully
Conclusion: this track is CDDA with probability 100%
Tempfile successfully deleted.

17 -===- E:\Новая папка (3)\2000 - Etta James - The Chess Box {flac}\CD2\17 - 842-3089 (Call My Name).flac
Extracted successfully
Conclusion: this track is CDDA with probability 100%
Tempfile successfully deleted.

18 -===- E:\Новая папка (3)\2000 - Etta James - The Chess Box {flac}\CD2\18 - I'd Rather Go Blind.flac
Extracted successfully
Conclusion: this track is CDDA with probability 100%
Tempfile successfully deleted.

19 -===- E:\Новая папка (3)\2000 - Etta James - The Chess Box {flac}\CD2\19 - Tell Mama.flac
Extracted successfully
Conclusion: this track is CDDA with probability 100%
Tempfile successfully deleted.

20 -===- E:\Новая папка (3)\2000 - Etta James - The Chess Box {flac}\CD2\20 - Do Right Woman, Do Right Man.flac
Extracted successfully
Conclusion: this track is CDDA with probability 100%
Tempfile successfully deleted.

21 -===- E:\Новая папка (3)\2000 - Etta James - The Chess Box {flac}\CD2\21 - Security.flac
Extracted successfully
Conclusion: this track is CDDA with probability 100%
Tempfile successfully deleted.

22 -===- E:\Новая папка (3)\2000 - Etta James - The Chess Box {flac}\CD2\22 - I Worship the Ground You Walk On.flac
Extracted successfully
Conclusion: this track is CDDA with probability 100%
Tempfile successfully deleted.

23 -===- E:\Новая папка (3)\2000 - Etta James - The Chess Box {flac}\CD2\23 - You Took It.flac
Extracted successfully
Conclusion: this track is CDDA with probability 99%
Tempfile successfully deleted.

24 -===- E:\Новая папка (3)\2000 - Etta James - The Chess Box {flac}\CD2\24 - Almost Persuaded.flac
Extracted successfully
Conclusion: this track is CDDA with probability 100%
Tempfile successfully deleted.

25 -===- E:\Новая папка (3)\2000 - Etta James - The Chess Box {flac}\CD2\25 - You Got It.flac
Extracted successfully
Conclusion: this track is CDDA with probability 100%
Tempfile successfully deleted.

26 -===- E:\Новая папка (3)\2000 - Etta James - The Chess Box {flac}\CD2\26 - Light My Fire.flac
Extracted successfully
Conclusion: this track is CDDA with probability 100%
Tempfile successfully deleted.

Finished at: вторник, 17. 03. 2009. - 0:57.01 (operation time: 0:08.45)
01. Slow and Easy
02. Soul of a Man
03. Miss Pitiful
04. Finders Keepers, Losers Weepers
05. I Found A Love
06. W.O.M.A.N.
07. Never My Love
08. I Never Meant to Love Him
09. You Lost That Lovin' Feelin'
10. Sail Away
11. Down So Low
12. All the Way Down
13. God's Song (That's Why I Love Mankind)
14. Feelin' Uneasy
15. St. Louis Blues
16. Gonna Have Some Fun Tonight
17. Let's Burn Down the Cornfield
18. Sookie Sookie
19. Out On the Street Again
20. Lovin' Arms
Exact Audio Copy V0.99 prebeta 4 from 23. January 2008

EAC extraction logfile from 11. September 2008, 20:46

Etta James / The Chess Box Set (CD3)

Used drive : PLEXTOR CD-R PX-240A Adapter: 1 ID: 1

Read mode : Secure
Utilize accurate stream : Yes
Defeat audio cache : Yes
Make use of C2 pointers : No

Read offset correction : 6
Overread into Lead-In and Lead-Out : No
Fill up missing offset samples with silence : Yes
Delete leading and trailing silent blocks : No
Null samples used in CRC calculations : Yes
Used interface : Native Win32 interface for Win NT & 2000
Gap handling : Appended to previous track

Used output format : User Defined Encoder
Selected bitrate : 160 kBit/s
Quality : High
Add ID3 tag : No
Command line compressor : C:\Program Files\FLAC\flac.exe
Additional command line options : -5 -V -T "ARTIST=%a" -T "TITLE=%t" -T "ALBUM=%g" -T "TRACKNUMBER=%n" -T "GENRE=%m" %s

TOC of the extracted CD

Track | Start | Length | Start sector | End sector
---------------------------------------------------------
1 | 0:00.00 | 3:20.20 | 0 | 15019
2 | 3:20.20 | 3:15.40 | 15020 | 29684
3 | 6:35.60 | 2:24.52 | 29685 | 40536
4 | 9:00.37 | 3:02.15 | 40537 | 54201
5 | 12:02.52 | 3:28.40 | 54202 | 69841
6 | 15:31.17 | 3:17.15 | 69842 | 84631
7 | 18:48.32 | 3:52.50 | 84632 | 102081
8 | 22:41.07 | 3:52.68 | 102082 | 119549
9 | 26:34.00 | 6:11.32 | 119550 | 147406
10 | 32:45.32 | 4:00.03 | 147407 | 165409
11 | 36:45.35 | 3:42.12 | 165410 | 182071
12 | 40:27.47 | 5:35.58 | 182072 | 207254
13 | 46:03.30 | 3:39.00 | 207255 | 223679
14 | 49:42.30 | 2:49.17 | 223680 | 236371
15 | 52:31.47 | 4:32.68 | 236372 | 256839
16 | 57:04.40 | 4:04.62 | 256840 | 275201
17 | 61:09.27 | 3:46.00 | 275202 | 292151
18 | 64:55.27 | 3:11.10 | 292152 | 306486
19 | 68:06.37 | 4:21.15 | 306487 | 326076
20 | 72:27.52 | 3:48.25 | 326077 | 343201

Track 1

Filename K:\+-+ CD rips +-+\WAV rips\01 - Slow and Easy.wav

Pre-gap length 0:00:02.00

Peak level 98.5 %
Track quality 100.0 %
Test CRC 00DA395F
Copy CRC 00DA395F
Copy OK

Track 2

Filename K:\+-+ CD rips +-+\WAV rips\02 - Soul of a Man.wav

Pre-gap length 0:00:02.53

Peak level 98.2 %
Track quality 100.0 %
Test CRC AE2C3892
Copy CRC AE2C3892
Copy OK

Track 3

Filename K:\+-+ CD rips +-+\WAV rips\03 - Miss Pitiful.wav

Pre-gap length 0:00:02.57

Peak level 98.8 %
Track quality 100.0 %
Test CRC 86DB36D6
Copy CRC 86DB36D6
Copy OK

Track 4

Filename K:\+-+ CD rips +-+\WAV rips\04 - Finders Keepers, Losers Weepers.wav

Pre-gap length 0:00:02.56

Peak level 98.5 %
Track quality 100.0 %
Test CRC EC3674CB
Copy CRC EC3674CB
Copy OK

Track 5

Filename K:\+-+ CD rips +-+\WAV rips\05 - I Found A Love.wav

Pre-gap length 0:00:02.56

Peak level 98.8 %
Track quality 99.9 %
Test CRC 5E325310
Copy CRC 5E325310
Copy OK

Track 6

Filename K:\+-+ CD rips +-+\WAV rips\06 - W.O.M.A.N..wav

Pre-gap length 0:00:02.56

Peak level 98.2 %
Track quality 100.0 %
Test CRC A7EB9D27
Copy CRC A7EB9D27
Copy OK

Track 7

Filename K:\+-+ CD rips +-+\WAV rips\07 - Never My Love.wav

Pre-gap length 0:00:02.56

Peak level 98.4 %
Track quality 100.0 %
Test CRC 09660FBC
Copy CRC 09660FBC
Copy OK

Track 8

Filename K:\+-+ CD rips +-+\WAV rips\08 - I Never Meant to Love Him.wav

Pre-gap length 0:00:02.56

Peak level 98.6 %
Track quality 100.0 %
Test CRC C5AC7B74
Copy CRC C5AC7B74
Copy OK

Track 9

Filename K:\+-+ CD rips +-+\WAV rips\09 - You Lost That Lovin' Feelin'.wav

Pre-gap length 0:00:02.57

Peak level 98.8 %
Track quality 100.0 %
Test CRC E6F624CF
Copy CRC E6F624CF
Copy OK

Track 10

Filename K:\+-+ CD rips +-+\WAV rips\10 - Sail Away.wav

Pre-gap length 0:00:02.56

Peak level 98.1 %
Track quality 100.0 %
Test CRC 7D6A9308
Copy CRC 7D6A9308
Copy OK

Track 11

Filename K:\+-+ CD rips +-+\WAV rips\11 - Down So Low.wav

Pre-gap length 0:00:02.57

Peak level 98.4 %
Track quality 99.9 %
Test CRC F2FCF546
Copy CRC F2FCF546
Copy OK

Track 12

Filename K:\+-+ CD rips +-+\WAV rips\12 - All the Way Down.wav

Pre-gap length 0:00:02.56

Peak level 98.7 %
Track quality 100.0 %
Test CRC C9BCA6A4
Copy CRC C9BCA6A4
Copy OK

Track 13

Filename K:\+-+ CD rips +-+\WAV rips\13 - God's Song (That's Why I Love Mankind).wav

Pre-gap length 0:00:02.57

Peak level 98.5 %
Track quality 99.9 %
Test CRC D02F9BAB
Copy CRC D02F9BAB
Copy OK

Track 14

Filename K:\+-+ CD rips +-+\WAV rips\14 - Feelin' Uneasy.wav

Pre-gap length 0:00:02.57

Peak level 98.1 %
Track quality 100.0 %
Test CRC 6B22B214
Copy CRC 6B22B214
Copy OK

Track 15

Filename K:\+-+ CD rips +-+\WAV rips\15 - St. Louis Blues.wav

Peak level 98.1 %
Track quality 100.0 %
Test CRC D5D3A385
Copy CRC D5D3A385
Copy OK

Track 16

Filename K:\+-+ CD rips +-+\WAV rips\16 - Gonna Have Some Fun Tonight.wav

Peak level 97.4 %
Track quality 100.0 %
Test CRC DE4969E1
Copy CRC DE4969E1
Copy OK

Track 17

Filename K:\+-+ CD rips +-+\WAV rips\17 - Let's Burn Down the Cornfield.wav

Peak level 98.2 %
Track quality 100.0 %
Test CRC 9635C721
Copy CRC 9635C721
Copy OK

Track 18

Filename K:\+-+ CD rips +-+\WAV rips\18 - Sookie Sookie.wav

Peak level 98.8 %
Track quality 100.0 %
Test CRC DB27EA57
Copy CRC DB27EA57
Copy OK

Track 19

Filename K:\+-+ CD rips +-+\WAV rips\19 - Out On the Street Again.wav

Pre-gap length 0:00:02.56

Peak level 98.3 %
Track quality 100.0 %
Test CRC 10F71E71
Copy CRC 10F71E71
Copy OK

Track 20

Filename K:\+-+ CD rips +-+\WAV rips\20 - Lovin' Arms.wav

Pre-gap length 0:00:02.56

Peak level 98.7 %
Track quality 100.0 %
Test CRC ECCC54C2
Copy CRC ECCC54C2
Copy OK

No errors occurred

End of status report
AUDIOCHECKER v2.0 beta (build 457) - by Dester - opdester@freemail.hu
~~~~~~~~~~~~~~~~~~~~~~~~~~~~~~~~~~

Started at: вторник, 17. 03. 2009. - 0:58.15
20 files found

01 -===- E:\Новая папка (3)\2000 - Etta James - The Chess Box {flac}\CD3\01 - Slow and Easy.flac
Extracted successfully
Conclusion: this track is CDDA with probability 99%
Tempfile successfully deleted.

02 -===- E:\Новая папка (3)\2000 - Etta James - The Chess Box {flac}\CD3\02 - Soul of a Man.flac
Extracted successfully
Conclusion: this track is CDDA with probability 100%
Tempfile successfully deleted.

03 -===- E:\Новая папка (3)\2000 - Etta James - The Chess Box {flac}\CD3\03 - Miss Pitiful.flac
Extracted successfully
Conclusion: this track is CDDA with probability 99%
Tempfile successfully deleted.

04 -===- E:\Новая папка (3)\2000 - Etta James - The Chess Box {flac}\CD3\04 - Finders Keepers, Losers Weepers.flac
Extracted successfully
Conclusion: this track is CDDA with probability 100%
Tempfile successfully deleted.

05 -===- E:\Новая папка (3)\2000 - Etta James - The Chess Box {flac}\CD3\05 - I Found A Love.flac
Extracted successfully
Conclusion: this track is CDDA with probability 100%
Tempfile successfully deleted.

06 -===- E:\Новая папка (3)\2000 - Etta James - The Chess Box {flac}\CD3\06 - W.O.M.A.N..flac
Extracted successfully
Conclusion: this track is CDDA with probability 100%
Tempfile successfully deleted.

07 -===- E:\Новая папка (3)\2000 - Etta James - The Chess Box {flac}\CD3\07 - Never My Love.flac
Extracted successfully
Conclusion: this track is CDDA with probability 100%
Tempfile successfully deleted.

08 -===- E:\Новая папка (3)\2000 - Etta James - The Chess Box {flac}\CD3\08 - I Never Meant to Love Him.flac
Extracted successfully
Conclusion: this track is CDDA with probability 100%
Tempfile successfully deleted.

09 -===- E:\Новая папка (3)\2000 - Etta James - The Chess Box {flac}\CD3\09 - You Lost That Lovin' Feelin'.flac
Extracted successfully
Conclusion: this track is CDDA with probability 100%
Tempfile successfully deleted.

10 -===- E:\Новая папка (3)\2000 - Etta James - The Chess Box {flac}\CD3\10 - Sail Away.flac
Extracted successfully
Conclusion: this track is CDDA with probability 100%
Tempfile successfully deleted.

11 -===- E:\Новая папка (3)\2000 - Etta James - The Chess Box {flac}\CD3\11 - Down So Low.flac
Extracted successfully
Conclusion: this track is CDDA with probability 99%
Tempfile successfully deleted.

12 -===- E:\Новая папка (3)\2000 - Etta James - The Chess Box {flac}\CD3\12 - All the Way Down.flac
Extracted successfully
Conclusion: this track is CDDA with probability 100%
Tempfile successfully deleted.

13 -===- E:\Новая папка (3)\2000 - Etta James - The Chess Box {flac}\CD3\13 - God's Song (That's Why I Love Mankind).flac
Extracted successfully
Conclusion: this track is CDDA with probability 100%
Tempfile successfully deleted.

14 -===- E:\Новая папка (3)\2000 - Etta James - The Chess Box {flac}\CD3\14 - Feelin' Uneasy.flac
Extracted successfully
Conclusion: this track is CDDA with probability 100%
Tempfile successfully deleted.

15 -===- E:\Новая папка (3)\2000 - Etta James - The Chess Box {flac}\CD3\15 - St. Louis Blues.flac
Extracted successfully
Conclusion: this track is CDDA with probability 99%
Tempfile successfully deleted.

16 -===- E:\Новая папка (3)\2000 - Etta James - The Chess Box {flac}\CD3\16 - Gonna Have Some Fun Tonight.flac
Extracted successfully
Conclusion: this track is CDDA with probability 100%
Tempfile successfully deleted.

17 -===- E:\Новая папка (3)\2000 - Etta James - The Chess Box {flac}\CD3\17 - Let's Burn Down the Cornfield.flac
Extracted successfully
Conclusion: this track is CDDA with probability 100%
Tempfile successfully deleted.

18 -===- E:\Новая папка (3)\2000 - Etta James - The Chess Box {flac}\CD3\18 - Sookie Sookie.flac
Extracted successfully
Conclusion: this track is CDDA with probability 100%
Tempfile successfully deleted.

19 -===- E:\Новая папка (3)\2000 - Etta James - The Chess Box {flac}\CD3\19 - Out On the Street Again.flac
Extracted successfully
Conclusion: this track is CDDA with probability 100%
Tempfile successfully deleted.

20 -===- E:\Новая папка (3)\2000 - Etta James - The Chess Box {flac}\CD3\20 - Lovin' Arms.flac
Extracted successfully
Conclusion: this track is CDDA with probability 100%
Tempfile successfully deleted.

Finished at: вторник, 17. 03. 2009. - 1:06.56 (operation time: 0:08.41)
Рип не мой,с what.cd.

Трекер:  [ 17-Фев-2012 20:15 ]

  

Скачать .torrent

Размер .torrent файла 19 KB


Размер: 1.36 GB
Хэш (hash) релиза: 0280d677a166ccf58abe337f5eddb69367866679

Еще никто не оставлял запись к записи скачать торрент Etta James-The Chess Box Set - 2000, FLAC . Будь первым!

!Обратная связь