Скачать через торрент музыку Rev. Robert Wilkins - Remember Me - 1993, FLAC бесплатно без регистрации torrent

Если у вас наблюдаются проблемы со скриншотами, переходом по ссылками, скачиванием торрентов - проблемы в блокировщике рекламы AdBlock. #хорошегоДня!


Статистика раздачи
Размер:  245 MB   |    Зарегистрирован:  5 лет 8 месяцев   |    .torrent скачан:  23 раза   |   
Раздают:  1  
   
Загрузка...
 
Автор Сообщение

Umakiro

avatar Umakiro


Rev. Robert Wilkins / Remember Me

Жанр: Blues / Country Blues / Gospel Blues
Год издания диска: 1993
Издатель (лейбл): Genes Records
Номер по каталогу: 9902
Страна: USA
Аудиокодек: FLAC (*.flac)
Тип рипа: tracks+.cue
Битрейт аудио: lossless
Продолжительность: 44:27
Источник (релизер): Источник - Вафли, релизер - anonymous
Наличие сканов в содержимом раздачи: front
Треклист:
1. Jesus Said If You Go
2. (Jesus Will Fix It) Alright
3. You Gotta Move
4. Streamline 'Frisco Limited
5. Pray For Me
6. Don't Let Nobody Turn You 'Round
7. Why Don't You Do It?
8. Just A Closer Walk With Thee
9. Rock of Ages
10. ...Remember Me
11. You've Got To Stand Your Test In Judgement
12. When The Saints Go Marchin' In
13. In The Army Of The Lord

Tracks 1-12 originally recorded August 1971 at Urban Sound Recordings, Ltd., Bethesda, MD.
Track 13 recorded live at the 1969 Memphis Country Blues Festival.
 
Exact Audio Copy V1.0 beta 2 from 29. April 2011

EAC extraction logfile from 14. September 2011, 18:08

Reverend Robert Wilkins / Remember Me

Used drive : TSSTcorpDVD+-RW TS-U633A Adapter: 0 ID: 1

Read mode : SecureUtilize accurate stream : YesDefeat audio cache : YesMake use of C2 pointers : No

Read offset correction : 6Overread into Lead-In and Lead-Out : NoFill up missing offset samples with silence : YesDelete leading and trailing silent blocks : NoNull samples used in CRC calculations : YesUsed interface : Native Win32 interface for Win NT & 2000Gap handling : Appended to previous track

Used output format : User Defined EncoderSelected bitrate : 1024 kBit/sQuality : HighAdd ID3 tag : NoCommand line compressor : C:\Program Files (x86)\Exact Audio Copy\Flac\flac.exeAdditional command line options : -8 -V -T "ARTIST=%artist%" -T "TITLE=%title%" -T "ALBUM=%albumtitle%" -T "DATE=%year%" -T "TRACKNUMBER=%tracknr%" -T "GENRE=%genre%" -T "PERFORMER=%albuminterpret%" -T "COMPOSER=%composer%" %haslyrics%--tag-from-file=LYRICS

TOC of the extracted CD

Track | Start | Length | Start sector | End sector --------------------------------------------------------- 1 | 0:00.00 | 1:23.15 | 0 | 6239 2 | 1:23.15 | 2:55.65 | 6240 | 19429 3 | 4:19.05 | 2:51.40 | 19430 | 32294 4 | 7:10.45 | 9:56.50 | 32295 | 77044 5 | 17:07.20 | 1:27.32 | 77045 | 83601 6 | 18:34.52 | 3:14.45 | 83602 | 98196 7 | 21:49.22 | 0:53.63 | 98197 | 102234 8 | 22:43.10 | 3:02.47 | 102235 | 115931 9 | 25:45.57 | 3:53.53 | 115932 | 133459 10 | 29:39.35 | 3:01.20 | 133460 | 147054 11 | 32:40.55 | 3:32.32 | 147055 | 162986 12 | 36:13.12 | 3:14.13 | 162987 | 177549 13 | 39:27.25 | 5:32.25 | 177550 | 202474

Track 1

Filename C:\MUSIC\EAC\UPLOAD\Reverend Robert Wilkins - 1993 - Remember Me [FLAC] {GDC 9902}\01 Jesus Said If You Go.wav

Pre-gap length 0:00:02.00

Peak level 67.7 % Extraction speed 1.7 X Track quality 100.0 % Test CRC 51679A44 Copy CRC 51679A44 Accurately ripped (confidence 1) [DF008770] (AR v1) Copy OK

Track 2

Filename C:\MUSIC\EAC\UPLOAD\Reverend Robert Wilkins - 1993 - Remember Me [FLAC] {GDC 9902}\02 (Jesus Will Fix It) Alright.wav

Pre-gap length 0:00:01.70

Peak level 80.2 % Extraction speed 2.3 X Track quality 100.0 % Test CRC 5058DC42 Copy CRC 5058DC42 Accurately ripped (confidence 1) [360EBFA0] (AR v1) Copy OK

Track 3

Filename C:\MUSIC\EAC\UPLOAD\Reverend Robert Wilkins - 1993 - Remember Me [FLAC] {GDC 9902}\03 You Gotta Move.wav

Pre-gap length 0:00:01.37

Peak level 63.4 % Extraction speed 2.4 X Track quality 100.0 % Test CRC 360FC561 Copy CRC 360FC561 Accurately ripped (confidence 1) [A5170E99] (AR v1) Copy OK

Track 4

Filename C:\MUSIC\EAC\UPLOAD\Reverend Robert Wilkins - 1993 - Remember Me [FLAC] {GDC 9902}\04 Streamline 'Frisco Ltd.wav

Pre-gap length 0:00:01.40

Peak level 70.8 % Extraction speed 3.3 X Track quality 100.0 % Test CRC 5C38A1C5 Copy CRC 5C38A1C5 Accurately ripped (confidence 1) [816EA992] (AR v1) Copy OK

Track 5

Filename C:\MUSIC\EAC\UPLOAD\Reverend Robert Wilkins - 1993 - Remember Me [FLAC] {GDC 9902}\05 Pray For Me.wav

Pre-gap length 0:00:01.46

Peak level 73.0 % Extraction speed 2.3 X Track quality 100.0 % Test CRC 5FCE599D Copy CRC 5FCE599D Accurately ripped (confidence 1) [DA32F2DB] (AR v1) Copy OK

Track 6

Filename C:\MUSIC\EAC\UPLOAD\Reverend Robert Wilkins - 1993 - Remember Me [FLAC] {GDC 9902}\06 Don't Let Nobody Turn You 'Round.wav

Pre-gap length 0:00:01.86

Peak level 68.8 % Extraction speed 3.1 X Track quality 100.0 % Test CRC 07AC4BF0 Copy CRC 07AC4BF0 Accurately ripped (confidence 1) [41EC8BC9] (AR v1) Copy OK

Track 7

Filename C:\MUSIC\EAC\UPLOAD\Reverend Robert Wilkins - 1993 - Remember Me [FLAC] {GDC 9902}\07 Why Don't You Do It.wav

Pre-gap length 0:00:01.60

Peak level 72.8 % Extraction speed 1.9 X Track quality 100.0 % Test CRC 1959E028 Copy CRC 1959E028 Accurately ripped (confidence 1) [F7F21219] (AR v1) Copy OK

Track 8

Filename C:\MUSIC\EAC\UPLOAD\Reverend Robert Wilkins - 1993 - Remember Me [FLAC] {GDC 9902}\08 Just A Closer Walk With Thee.wav

Pre-gap length 0:00:01.93

Peak level 61.1 % Extraction speed 3.2 X Track quality 100.0 % Test CRC 619042E7 Copy CRC 619042E7 Accurately ripped (confidence 1) [FFAC00FA] (AR v1) Copy OK

Track 9

Filename C:\MUSIC\EAC\UPLOAD\Reverend Robert Wilkins - 1993 - Remember Me [FLAC] {GDC 9902}\09 Rock Of Ages.wav

Pre-gap length 0:00:02.02

Peak level 61.4 % Extraction speed 2.9 X Track quality 99.9 % Test CRC 22443848 Copy CRC 22443848 Accurately ripped (confidence 1) [22DE3613] (AR v1) Copy OK

Track 10

Filename C:\MUSIC\EAC\UPLOAD\Reverend Robert Wilkins - 1993 - Remember Me [FLAC] {GDC 9902}\10 Remember Me.wav

Pre-gap length 0:00:01.40

Peak level 63.2 % Extraction speed 2.7 X Track quality 99.9 % Test CRC 4EA1AAFC Copy CRC 4EA1AAFC Accurately ripped (confidence 1) [00551E1C] (AR v1) Copy OK

Track 11

Filename C:\MUSIC\EAC\UPLOAD\Reverend Robert Wilkins - 1993 - Remember Me [FLAC] {GDC 9902}\11 You're Got To Stand Your Test In Judgement.wav

Pre-gap length 0:00:01.80

Peak level 57.9 % Extraction speed 3.7 X Track quality 100.0 % Test CRC 32B5D868 Copy CRC 32B5D868 Accurately ripped (confidence 1) [9CB48393] (AR v1) Copy OK

Track 12

Filename C:\MUSIC\EAC\UPLOAD\Reverend Robert Wilkins - 1993 - Remember Me [FLAC] {GDC 9902}\12 When The Saints Go Marchin' In.wav

Pre-gap length 0:00:01.62

Peak level 72.5 % Extraction speed 2.9 X Track quality 99.9 % Test CRC 8EB20B3A Copy CRC 8EB20B3A Accurately ripped (confidence 1) [098F0394] (AR v1) Copy OK

Track 13

Filename C:\MUSIC\EAC\UPLOAD\Reverend Robert Wilkins - 1993 - Remember Me [FLAC] {GDC 9902}\13 In The Army Of The Lord.wav

Pre-gap length 0:00:01.57

Peak level 70.9 % Extraction speed 3.6 X Track quality 99.9 % Test CRC 4B178E42 Copy CRC 4B178E42 Accurately ripped (confidence 1) [4C598CD5] (AR v1) Copy OK

All tracks accurately ripped

No errors occurred

End of status report

==== Log checksum 0B128231958F823AFA59E0CD5F11014A6F0569BFCF16037E484950EFB8B63366 ====
 
REM GENRE BluesREM DATE 1993REM DISCID A20A8B0DREM COMMENT "ExactAudioCopy v1.0b2"PERFORMER "Reverend Robert Wilkins"TITLE "Remember Me"FILE "01 Jesus Said If You Go.wav" WAVE TRACK 01 AUDIO TITLE "Jesus Said If You Go" PERFORMER "Reverend Robert Wilkins" INDEX 01 00:00:00 TRACK 02 AUDIO TITLE "(Jesus Will Fix It) Alright" PERFORMER "Reverend Robert Wilkins" INDEX 00 01:21:37FILE "02 (Jesus Will Fix It) Alright.wav" WAVE INDEX 01 00:00:00 TRACK 03 AUDIO TITLE "You Gotta Move" PERFORMER "Reverend Robert Wilkins" INDEX 00 02:54:37FILE "03 You Gotta Move.wav" WAVE INDEX 01 00:00:00 TRACK 04 AUDIO TITLE "Streamline 'Frisco Ltd" PERFORMER "Reverend Robert Wilkins" INDEX 00 02:50:10FILE "04 Streamline 'Frisco Ltd.wav" WAVE INDEX 01 00:00:00 TRACK 05 AUDIO TITLE "Pray For Me" PERFORMER "Reverend Robert Wilkins" INDEX 00 09:55:15FILE "05 Pray For Me.wav" WAVE INDEX 01 00:00:00 TRACK 06 AUDIO TITLE "Don't Let Nobody Turn You 'Round" PERFORMER "Reverend Robert Wilkins" INDEX 00 01:25:42FILE "06 Don't Let Nobody Turn You 'Round.wav" WAVE INDEX 01 00:00:00 TRACK 07 AUDIO TITLE "Why Don't You Do It?" PERFORMER "Reverend Robert Wilkins" INDEX 00 03:13:00FILE "07 Why Don't You Do It.wav" WAVE INDEX 01 00:00:00 TRACK 08 AUDIO TITLE "Just A Closer Walk With Thee" PERFORMER "Reverend Robert Wilkins" INDEX 00 00:51:68FILE "08 Just A Closer Walk With Thee.wav" WAVE INDEX 01 00:00:00 TRACK 09 AUDIO TITLE "Rock Of Ages" PERFORMER "Reverend Robert Wilkins" INDEX 00 03:00:45FILE "09 Rock Of Ages.wav" WAVE INDEX 01 00:00:00 TRACK 10 AUDIO TITLE "Remember Me" PERFORMER "Reverend Robert Wilkins" INDEX 00 03:52:23FILE "10 Remember Me.wav" WAVE INDEX 01 00:00:00 TRACK 11 AUDIO TITLE "You're Got To Stand Your Test In Judgement" PERFORMER "Reverend Robert Wilkins" INDEX 00 02:59:35FILE "11 You're Got To Stand Your Test In Judgement.wav" WAVE INDEX 01 00:00:00 TRACK 12 AUDIO TITLE "When The Saints Go Marchin' In" PERFORMER "Reverend Robert Wilkins" INDEX 00 03:30:60FILE "12 When The Saints Go Marchin' In.wav" WAVE INDEX 01 00:00:00 TRACK 13 AUDIO TITLE "In The Army Of The Lord" PERFORMER "Reverend Robert Wilkins" INDEX 00 03:12:45FILE "13 In The Army Of The Lord.wav" WAVE INDEX 01 00:00:00
 
-----------------------

DON'T MODIFY THIS FILE

-----------------------

PERFORMER: auCDtect Task Manager, ver. 1.5.1RC3 build 1.5.1.4Copyright (c) 2008-2010 y-soft. All rights reservedhttp://y-soft.org

ANALYZER: auCDtect: CD records authenticity detector, version 0.8.2Copyright (c) 2004 Oleg Berngardt. All rights reserved.Copyright (c) 2004 Alexander Djourik. All rights reserved.

FILE: 13 In The Army Of The Lord.flac Size: 31800961 Hash: 56C860CACB580AD15DB93AB4A2FBD89A Accuracy: -m0 Conclusion: CDDA 100% Signature: 96A45AAF5B27F8E33B5772C98F3137F248438A50FILE: 12 When The Saints Go Marchin' In.flac Size: 19130773 Hash: 396D3E44E1E36664C34948A91AD871D6 Accuracy: -m0 Conclusion: CDDA 99% Signature: 079856A9DC184CC880550E19A4EC19FAD7C4C40CFILE: 11 You're Got To Stand Your Test In Judgement.flac Size: 19321350 Hash: C453B930EC7C3DF969835C044608EDE3 Accuracy: -m0 Conclusion: CDDA 99% Signature: 262D43C9B63EAC1572D7A5E6A9A54B62122BDDCFFILE: 10 Remember Me.flac Size: 17935019 Hash: 2D8413CE4586BFA293850221D271F2E7 Accuracy: -m0 Conclusion: CDDA 100% Signature: 560B0EB84326D97F79DCE8DE35AA01D71F4D485FFILE: 09 Rock Of Ages.flac Size: 23155186 Hash: F0A3DA8CCEC3059EF8A7AA45E658BA07 Accuracy: -m0 Conclusion: CDDA 99% Signature: E59452C46177EAF00A862768D14EB52F27EF4675FILE: 08 Just A Closer Walk With Thee.flac Size: 16234322 Hash: 7ED630D50E0C9FFC5F23D836074763D6 Accuracy: -m0 Conclusion: CDDA 100% Signature: E22710106A9FBD39DDBB97A4E05927954F514130FILE: 07 Why Don't You Do It.flac Size: 4710211 Hash: 10DB5C28330852E59B00F32D51BB3D56 Accuracy: -m0 Conclusion: CDDA 100% Signature: 61BA6141A01518F2131BC3939F5F1D995844BA61FILE: 06 Don't Let Nobody Turn You 'Round.flac Size: 19411847 Hash: 6A440D0111330F3F30AA52A03AE284FB Accuracy: -m0 Conclusion: CDDA 100% Signature: C078B1454B063CD692C7A204F9A91EEA546CF261FILE: 05 Pray For Me.flac Size: 7720770 Hash: 348974CCCBBFD93C0A5FF5C864881493 Accuracy: -m0 Conclusion: CDDA 100% Signature: CCE80E2178267265480CD323016DA2D8058BEDDDFILE: 04 Streamline 'Frisco Ltd.flac Size: 56571565 Hash: EB005B5D308421090ED8822E7917AEE6 Accuracy: -m0 Conclusion: CDDA 100% Signature: 7089F3513F5402C950CB04BC08AE01ABF0B9781EFILE: 03 You Gotta Move.flac Size: 15625168 Hash: 39EAA7369B815A5864ED2FD18B1A4406 Accuracy: -m0 Conclusion: CDDA 100% Signature: 058754416ABFBAD38B41D5D5D294F75795A430CAFILE: 02 (Jesus Will Fix It) Alright.flac Size: 17325517 Hash: 0B64184AE8B8ED8D80ACEEA034F2B828 Accuracy: -m0 Conclusion: CDDA 100% Signature: 2069E31A9285DA680BE31E4B7B91BE85C819EAACFILE: 01 Jesus Said If You Go.flac Size: 7772342 Hash: 26B6961850DEDAA543195E97615032CF Accuracy: -m0 Conclusion: CDDA 100% Signature: F3D3DDBA9789CF04C7922B05F44CC3561B7CB187


Трекер:  [ 17-Фев-2012 20:11 ]

  

Скачать .torrent

Размер .torrent файла 20 KB


Размер: 245 MB
Хэш (hash) релиза: bacd8189da1eb6922a4185dbe539de5bcc327dec

Еще никто не оставлял запись к записи скачать торрент Rev. Robert Wilkins - Remember Me - 1993, FLAC . Будь первым!

!Обратная связь