Скачать через торрент музыку VA - Im A Bad, Bad Girl - 2004, FLAC бесплатно без регистрации torrent

Если у вас наблюдаются проблемы со скриншотами, переходом по ссылками, скачиванием торрентов - проблемы в блокировщике рекламы AdBlock. #хорошегоДня!


Статистика раздачи
Размер:  799 MB   |    Зарегистрирован:  5 лет 7 месяцев   |    .torrent скачан:  38 раз   |   
Раздают:  1  
   
Загрузка...
 
Автор Сообщение

Umakiro

avatar Umakiro


VA - I'm A Bad, Bad Girl

Жанр: blues/r'n'b/soul
Год выпуска диска: 2004
Производитель диска: UK Indigo/Sanctuary records
Аудио кодек: FLAC
Тип рипа: image+.cue
Битрейт аудио: lossless
Продолжительность: 3:47:57
Треклист:
1. Little Sylvia - Drive Daddy, Drive
2. Mabel Smith - Too Tight Mama
3. Myra Taylor - I'm In My Sins This Morning
4. Fluffy Hunter - Fluffy's Debut
5. Billie Holiday - I Gotta Right To Sing The Blues
6. Lula Reed - Waiting To Be Loved By You
7. Wini Brown - He's My Daddy
8. Rosetta Perry - Worry, Worry, Worry
9. Cathy Cooper - Pay Day Blues
10. Ruth Brown - I Would If I Could
11. Lil Green - Every Time
12. Erline Harris - Jump And Shout
13. Christine Kittrell - Sittin' Here Drinking
14. Marylin Scott - Beer Bottle Boogie
15. Gladys Palmer - Palmer's Boogie
16. Pearl Traylor - Come On Daddy (Let's Go Play Tonight)
17. Tiny Davis - Race Horse
18. Mildred Jones - It's Been A Long Time
19. Flo Garvin - Let Me Keep You Warm
20. Laurie Tate - Rock Me Daddy
21. Helen Andrews - Black Man's Blues
22. Little Miss Cornshucks (Aka Mildred Cummings) - Papa Tree Top Blues
23. Lil Greenwood - With The Four Jacks Monday Morning Blues
24. Helen Foster - Oop-De-Doo
25. Mitzi Mars - Roll 'Em
26. Big Mama Thornton - They Call Me Big Mama
27. Linda Hayes - Yes! I Know
28. Nora Lee King - Cannon Ball
1. Annie Laurie - Stop Talkin' And Start Walkin'
2. Annisteen Allen - Baby, I'm Doing It
3. Joyce Jackson - Body Rocking Daddy
4. Bea Baker - I Want A Lavender Cadillac
5. Mabel Scott - Just Give Me A Man
6. Jewel King - 3 X 7 = 21
7. Dorothy Ellis - He's Gone
8. Betty Hall Jones - This Joint's Too Hip For Me
9. Marie Adams - I'm Gonna Play The Honky Tonks
10. Alma Mondy - Streetwalkin' Daddy
11. Edna Mcgriff - Edna's Blues
12. Marion Abernathy - Goin' For The Okey-Doke
13. Nellie Lutcher - Come On And Get It, Honey
14. Willie Lee Patton - Allotment Blues (Dear John)
15. Violet Hall - Six Foot Papa (Whole Lotta Woman)
16. Sister Rock-A-Way - Young Women's Advice
17. Alberta Adams - Messin' Around With The Blues
18. Dinah Washington - Please Send Me Someone To Love
19. Martha Davis - I Ain't Getting' Any Younger
20. Sister Rosetta Tharpe - Rock Daniel
21. Margie Day - Little Red Rooster
22. Ella Johnson - Til My Baby Comes Back
23. Thelma Cooper - I Need A Man
24. Ella Mae Morse - House Of Blue Lights
25. Sarah \221Fatwoman' Dean - I Got Your Boogie
26. Hadda Brooks - Brooks' Boogie
27. Kitty Stevenson - Good Man
28. Honey Brown - Rockin' And Jumpin'
1. Little Esther Phillips - I'm A Bad, Bad Girl
2. Helen Humes - I Ain't In The Mood
3. Baby Davis - Happy Home Blues
4. Etta Jones - You Ain't Nothin' Daddy
5. Varetta Dillard - A Letter In Blues
6. Julia Lee - King Size Papa
7. Sippie Wallace - Bedroom Blues
8. Zilla Mays - Nightshift Blues
9. Miss Rhapsody (Aka Viola Wells) - He May Be Your Man
10. Chubby Newsome - Where's The Money, Honey
11. Faye Adams - Shake A Hand
12. Lillie Mae Kirkman - Lovin' Man Blues
13. Little Miss Sharecropper (Aka Lavern Baker) - Easy Baby
14. Connie Allen - Hard Working Woman
15. Iona Wade - Why Don't You Tell Me So
16. Big Maybelle - Just Want Your Love
17. Beverley Wright - Kissin' Boogie
18. Blue Lu Barker - Don't You Feel My Leg
19. Numa Lee Davis - Around The Clock (Part 1)
20. Vivian Verson - I Want To Know
21. Camille Howard - Money Blues
22. Eleanor Franklin - The Three Men In My Life (Part 1)
23. Paula Watson - Pretty Papa Blues
24. Rosetta Howard - You Made Me Love You
25. Gladys Hill - Please Don't Touch My Bowl
26. Albinia Jones - Hey Little Boy
27. Bettye Jean Washington - Bettye Jean's Blues
28. Vivian Greene - Bowlegged Boogie
Доп. информация:
Exact Audio Copy V0.99 prebeta 4 from 23. January 2008

Отчёт EAC об извлечении, выполненном 25. августа 2010, 18:39

Various / I'm A Bad, Bad Girl - CD1

Дисковод: PIONEER DVD-RW DVR-110D Adapter: 1 ID: 1

Режим чтения : Достоверность
Использование точного потока : Да
Отключение кэша аудио : Да
Использование указателей C2 : Нет

Коррекция смещения при чтении : 48
Способность читать области Lead-in и Lead-out : Нет
Заполнение пропущенных сэмплов тишиной : Да
Удаление блоков с тишиной в начале и конце : Нет
При вычислениях CRC использовались нулевые сэмплы : Да
Интерфейс : Встроенный Win32-интерфейс для Win NT/2000

Выходной формат : Пользовательский кодировщик
Выбранный битрейт : 896 kBit/s
Качество : Высокий
Добавление ID3-тэга : Нет
Утилита сжатия : C:\Program Files\Exact Audio Copy\FLAC\FLAC.EXE
Дополнительные параметры : -6 -V -T "ARTIST=%a" -T "TITLE=%t" -T "ALBUM=%g" -T "DATE=%y" -T "TRACKNUMBER=%n" -T "GENRE=%m" -T "COMMENT=%e" %s -o %d

TOC извлечённого CD

Трек | Старт | Длительность | Начальный сектор | Конечный сектор
---------------------------------------------------------------------
1 | 0:00.00 | 2:31.63 | 0 | 11387
2 | 2:31.63 | 2:54.06 | 11388 | 24443
3 | 5:25.69 | 2:38.00 | 24444 | 36293
4 | 8:03.69 | 2:31.21 | 36294 | 47639
5 | 10:35.15 | 2:52.17 | 47640 | 60556
6 | 13:27.32 | 2:17.32 | 60557 | 70863
7 | 15:44.64 | 2:45.13 | 70864 | 83251
8 | 18:30.02 | 2:49.39 | 83252 | 95965
9 | 21:19.41 | 3:06.63 | 95966 | 109978
10 | 24:26.29 | 2:42.14 | 109979 | 122142
11 | 27:08.43 | 3:09.50 | 122143 | 136367
12 | 30:18.18 | 2:17.71 | 136368 | 146713
13 | 32:36.14 | 3:25.10 | 146714 | 162098
14 | 36:01.24 | 2:41.41 | 162099 | 174214
15 | 38:42.65 | 2:35.21 | 174215 | 185860
16 | 41:18.11 | 2:13.00 | 185861 | 195835
17 | 43:31.11 | 2:37.12 | 195836 | 207622
18 | 46:08.23 | 2:43.06 | 207623 | 219853
19 | 48:51.29 | 2:43.15 | 219854 | 232093
20 | 51:34.44 | 2:25.55 | 232094 | 243023
21 | 54:00.24 | 2:54.31 | 243024 | 256104
22 | 56:54.55 | 2:13.74 | 256105 | 266153
23 | 59:08.54 | 2:42.25 | 266154 | 278328
24 | 61:51.04 | 2:04.55 | 278329 | 287683
25 | 63:55.59 | 2:37.25 | 287684 | 299483
26 | 66:33.09 | 2:04.04 | 299484 | 308787
27 | 68:37.13 | 2:53.21 | 308788 | 321783
28 | 71:30.34 | 2:45.47 | 321784 | 334205

Характеристики диапазона извлечения и сообщения об ошибках

Выбранный диапазон

Имя файла G:\Torrents\VA - I'm A Bad, Bad Girl\CD 1\Various - I'm A Bad, Bad Girl - CD1.wav

Пиковый уровень 98.8 %
Качество диапазона 100.0 %
CRC теста 21AC5834
CRC копии 21AC5834
Копирование... OK

Ошибок не произошло

AccurateRip: сводка

Трек 1 точное извлечение (доверие 1) [019856F8]
Трек 2 точное извлечение (доверие 1) [610B8298]
Трек 3 точное извлечение (доверие 1) [DBF29D99]
Трек 4 точное извлечение (доверие 1) [65774862]
Трек 5 точное извлечение (доверие 1) [5185569C]
Трек 6 точное извлечение (доверие 1) [F6ED1084]
Трек 7 точное извлечение (доверие 1) [7ABBFEEB]
Трек 8 точное извлечение (доверие 1) [3BEB8E15]
Трек 9 точное извлечение (доверие 1) [B0D7EB89]
Трек 10 точное извлечение (доверие 1) [87668B5A]
Трек 11 точное извлечение (доверие 1) [A5470CEF]
Трек 12 точное извлечение (доверие 1) [ADF61F76]
Трек 13 точное извлечение (доверие 1) [8377F284]
Трек 14 точное извлечение (доверие 1) [128CC0B7]
Трек 15 точное извлечение (доверие 1) [B419D0B2]
Трек 16 точное извлечение (доверие 1) [A2F89A1D]
Трек 17 точное извлечение (доверие 1) [E2D3C270]
Трек 18 точное извлечение (доверие 1) [593F0313]
Трек 19 точное извлечение (доверие 1) [078B258A]
Трек 20 точное извлечение (доверие 1) [9346B5E7]
Трек 21 точное извлечение (доверие 1) [0A2F2EB0]
Трек 22 точное извлечение (доверие 1) [148CE4B0]
Трек 23 точное извлечение (доверие 1) [D1D9B6B8]
Трек 24 точное извлечение (доверие 1) [A4A77367]
Трек 25 точное извлечение (доверие 1) [BEB9529C]
Трек 26 точное извлечение (доверие 1) [0CE6C1C6]
Трек 27 точное извлечение (доверие 1) [1BF024D2]
Трек 28 точное извлечение (доверие 1) [E77BE159]

Все треки извлечены точно

Конец отчёта
Exact Audio Copy V0.99 prebeta 4 from 23. January 2008

Отчёт EAC об извлечении, выполненном 25. августа 2010, 19:22

Various / I'm A Bad, Bad Girl - CD2

Дисковод: PIONEER DVD-RW DVR-110D Adapter: 1 ID: 1

Режим чтения : Достоверность
Использование точного потока : Да
Отключение кэша аудио : Да
Использование указателей C2 : Нет

Коррекция смещения при чтении : 48
Способность читать области Lead-in и Lead-out : Нет
Заполнение пропущенных сэмплов тишиной : Да
Удаление блоков с тишиной в начале и конце : Нет
При вычислениях CRC использовались нулевые сэмплы : Да
Интерфейс : Встроенный Win32-интерфейс для Win NT/2000

Выходной формат : Пользовательский кодировщик
Выбранный битрейт : 896 kBit/s
Качество : Высокий
Добавление ID3-тэга : Нет
Утилита сжатия : C:\Program Files\Exact Audio Copy\FLAC\FLAC.EXE
Дополнительные параметры : -6 -V -T "ARTIST=%a" -T "TITLE=%t" -T "ALBUM=%g" -T "DATE=%y" -T "TRACKNUMBER=%n" -T "GENRE=%m" -T "COMMENT=%e" %s -o %d

TOC извлечённого CD

Трек | Старт | Длительность | Начальный сектор | Конечный сектор
---------------------------------------------------------------------
1 | 0:00.00 | 2:33.19 | 0 | 11493
2 | 2:33.19 | 2:28.00 | 11494 | 22593
3 | 5:01.19 | 2:31.22 | 22594 | 33940
4 | 7:32.41 | 2:55.56 | 33941 | 47121
5 | 10:28.22 | 2:55.63 | 47122 | 60309
6 | 13:24.10 | 2:34.52 | 60310 | 71911
7 | 15:58.62 | 2:53.56 | 71912 | 84942
8 | 18:52.43 | 2:31.39 | 84943 | 96306
9 | 21:24.07 | 2:42.50 | 96307 | 108506
10 | 24:06.57 | 2:39.21 | 108507 | 120452
11 | 26:46.03 | 2:49.74 | 120453 | 133201
12 | 29:36.02 | 2:47.71 | 133202 | 145797
13 | 32:23.73 | 2:48.28 | 145798 | 158425
14 | 35:12.26 | 2:54.59 | 158426 | 171534
15 | 38:07.10 | 2:29.69 | 171535 | 182778
16 | 40:37.04 | 2:47.29 | 182779 | 195332
17 | 43:24.33 | 2:53.62 | 195333 | 208369
18 | 46:18.20 | 3:01.18 | 208370 | 221962
19 | 49:19.38 | 2:53.46 | 221963 | 234983
20 | 52:13.09 | 2:57.60 | 234984 | 248318
21 | 55:10.69 | 3:08.55 | 248319 | 262473
22 | 58:19.49 | 2:23.14 | 262474 | 273212
23 | 60:42.63 | 1:49.27 | 273213 | 281414
24 | 62:32.15 | 2:52.73 | 281415 | 294387
25 | 65:25.13 | 2:10.04 | 294388 | 304141
26 | 67:35.17 | 2:52.06 | 304142 | 317047
27 | 70:27.23 | 2:39.47 | 317048 | 329019
28 | 73:06.70 | 2:56.02 | 329020 | 342221

Характеристики диапазона извлечения и сообщения об ошибках

Выбранный диапазон

Имя файла G:\Torrents\VA - I'm A Bad, Bad Girl\CD 2\Various - I'm A Bad, Bad Girl - CD2.wav

Пиковый уровень 98.8 %
Качество диапазона 100.0 %
CRC теста 044FBD87
CRC копии 044FBD87
Копирование... OK

Ошибок не произошло

AccurateRip: сводка

Трек 1 точное извлечение (доверие 2) [1BC3C7F3]
Трек 2 точное извлечение (доверие 2) [BE017191]
Трек 3 точное извлечение (доверие 2) [B02B96A7]
Трек 4 точное извлечение (доверие 2) [1EA2953C]
Трек 5 точное извлечение (доверие 2) [504363E0]
Трек 6 нет в базе данных
Трек 7 точное извлечение (доверие 2) [F99F2093]
Трек 8 точное извлечение (доверие 2) [E93F2663]
Трек 9 нет в базе данных
Трек 10 точное извлечение (доверие 2) [24ADAADF]
Трек 11 точное извлечение (доверие 2) [9CF8C3F4]
Трек 12 точное извлечение (доверие 2) [80563A13]
Трек 13 точное извлечение (доверие 2) [6035B7D3]
Трек 14 точное извлечение (доверие 2) [4BA91F31]
Трек 15 точное извлечение (доверие 2) [FDADFC6A]
Трек 16 точное извлечение (доверие 2) [58CD684C]
Трек 17 точное извлечение (доверие 2) [4715C0E7]
Трек 18 точное извлечение (доверие 2) [30CBEF8D]
Трек 19 точное извлечение (доверие 2) [40220BDF]
Трек 20 точное извлечение (доверие 2) [E8DB7CCE]
Трек 21 точное извлечение (доверие 2) [8AB25D85]
Трек 22 точное извлечение (доверие 2) [91311703]
Трек 23 точное извлечение (доверие 2) [28463AD1]
Трек 24 нет в базе данных
Трек 25 точное извлечение (доверие 2) [4F4F5055]
Трек 26 точное извлечение (доверие 2) [602C0C15]
Трек 27 точное извлечение (доверие 2) [06AE303B]
Трек 28 точное извлечение (доверие 2) [E86CC1C9]

25 трек(и) скопированы точно
3 трек(и) не содержатся в базе AccurateRip

Некоторые треки не прошли проверку на точность

Конец отчёта
Exact Audio Copy V0.99 prebeta 4 from 23. January 2008

Отчёт EAC об извлечении, выполненном 25. августа 2010, 19:54

Various / I'm A Bad, Bad Girl - CD3

Дисковод: PIONEER DVD-RW DVR-110D Adapter: 1 ID: 1

Режим чтения : Достоверность
Использование точного потока : Да
Отключение кэша аудио : Да
Использование указателей C2 : Нет

Коррекция смещения при чтении : 48
Способность читать области Lead-in и Lead-out : Нет
Заполнение пропущенных сэмплов тишиной : Да
Удаление блоков с тишиной в начале и конце : Нет
При вычислениях CRC использовались нулевые сэмплы : Да
Интерфейс : Встроенный Win32-интерфейс для Win NT/2000

Выходной формат : Пользовательский кодировщик
Выбранный битрейт : 896 kBit/s
Качество : Высокий
Добавление ID3-тэга : Нет
Утилита сжатия : C:\Program Files\Exact Audio Copy\FLAC\FLAC.EXE
Дополнительные параметры : -6 -V -T "ARTIST=%a" -T "TITLE=%t" -T "ALBUM=%g" -T "DATE=%y" -T "TRACKNUMBER=%n" -T "GENRE=%m" -T "COMMENT=%e" %s -o %d

TOC извлечённого CD

Трек | Старт | Длительность | Начальный сектор | Конечный сектор
---------------------------------------------------------------------
1 | 0:00.00 | 2:57.33 | 0 | 13307
2 | 2:57.33 | 2:40.26 | 13308 | 25333
3 | 5:37.59 | 2:30.36 | 25334 | 36619
4 | 8:08.20 | 2:44.43 | 36620 | 48962
5 | 10:52.63 | 2:51.40 | 48963 | 61827
6 | 13:44.28 | 2:41.61 | 61828 | 73963
7 | 16:26.14 | 3:12.33 | 73964 | 88396
8 | 19:38.47 | 2:41.04 | 88397 | 100475
9 | 22:19.51 | 2:59.66 | 100476 | 113966
10 | 25:19.42 | 2:23.57 | 113967 | 124748
11 | 27:43.24 | 2:55.33 | 124749 | 137906
12 | 30:38.57 | 2:51.59 | 137907 | 150790
13 | 33:30.41 | 2:39.32 | 150791 | 162747
14 | 36:09.73 | 3:01.01 | 162748 | 176323
15 | 39:10.74 | 2:35.09 | 176324 | 187957
16 | 41:46.08 | 3:13.73 | 187958 | 202505
17 | 45:00.06 | 2:14.22 | 202506 | 212577
18 | 47:14.28 | 3:03.54 | 212578 | 226356
19 | 50:18.07 | 2:31.65 | 226357 | 237746
20 | 52:49.72 | 2:06.54 | 237747 | 247250
21 | 54:56.51 | 2:30.02 | 247251 | 258502
22 | 57:26.53 | 3:15.08 | 258503 | 273135
23 | 60:41.61 | 2:42.40 | 273136 | 285325
24 | 63:24.26 | 2:41.39 | 285326 | 297439
25 | 66:05.65 | 2:49.35 | 297440 | 310149
26 | 68:55.25 | 2:36.71 | 310150 | 321920
27 | 71:32.21 | 2:59.59 | 321921 | 335404
28 | 74:32.05 | 3:05.30 | 335405 | 349309

Характеристики диапазона извлечения и сообщения об ошибках

Выбранный диапазон

Имя файла G:\Torrents\VA - I'm A Bad, Bad Girl\CD 3\Various - I'm A Bad, Bad Girl - CD3.wav

Пиковый уровень 95.7 %
Качество диапазона 100.0 %
CRC теста 57EB183B
CRC копии 57EB183B
Копирование... OK

Ошибок не произошло

AccurateRip: сводка

Трек 1 точное извлечение (доверие 1) [F46186CD]
Трек 2 точное извлечение (доверие 1) [B492291C]
Трек 3 точное извлечение (доверие 1) [C0864C96]
Трек 4 точное извлечение (доверие 1) [70E52C3B]
Трек 5 точное извлечение (доверие 1) [7ABF1161]
Трек 6 точное извлечение (доверие 1) [FE41AF92]
Трек 7 точное извлечение (доверие 1) [C63349A9]
Трек 8 точное извлечение (доверие 1) [178F5471]
Трек 9 точное извлечение (доверие 1) [063C7E4C]
Трек 10 точное извлечение (доверие 1) [EAD1B7A9]
Трек 11 точное извлечение (доверие 1) [15A649CF]
Трек 12 точное извлечение (доверие 1) [BE9F3F99]
Трек 13 точное извлечение (доверие 1) [BF159093]
Трек 14 точное извлечение (доверие 1) [A3C64990]
Трек 15 точное извлечение (доверие 1) [1F64B6E1]
Трек 16 точное извлечение (доверие 1) [0929FC36]
Трек 17 точное извлечение (доверие 1) [E9BF9DF0]
Трек 18 точное извлечение (доверие 1) [C2C2CB32]
Трек 19 точное извлечение (доверие 1) [7CF3913B]
Трек 20 точное извлечение (доверие 1) [94B2EF2D]
Трек 21 точное извлечение (доверие 1) [6F1457A5]
Трек 22 точное извлечение (доверие 1) [1E0C5E6A]
Трек 23 точное извлечение (доверие 1) [35E63AF6]
Трек 24 точное извлечение (доверие 1) [BE169B2E]
Трек 25 точное извлечение (доверие 1) [9E5889C8]
Трек 26 точное извлечение (доверие 1) [1B1BCAE6]
Трек 27 точное извлечение (доверие 1) [94577F93]
Трек 28 точное извлечение (доверие 1) [764CB989]

Все треки извлечены точно

Конец отчёта


Трекер:  [ 17-Фев-2012 20:09 ]

  

Скачать .torrent

Размер .torrent файла 17 KB


Размер: 799 MB
Хэш (hash) релиза: f8f8ad18f0d0e0d37ca95ccc6bec55a1b8f4f0cd

Еще никто не оставлял запись к записи скачать торрент VA - Im A Bad, Bad Girl - 2004, FLAC . Будь первым!

!Обратная связь