Скачать через торрент музыку Duke Ellington & His Orchestra — Yale Concert бесплатно без регистрации torrent

Если у вас наблюдаются проблемы со скриншотами, переходом по ссылками, скачиванием торрентов - проблемы в блокировщике рекламы AdBlock. #хорошегоДня!


Статистика раздачи
Размер:  267 MB   |    Зарегистрирован:  5 лет 8 месяцев   |    .torrent скачан:  31 раз   |   
Раздают:  1  
   
Загрузка...
 
Автор Сообщение

Umakiro

avatar Umakiro


Duke Ellington & His Orchestra — Yale Concert (1968)

Жанр: Big Band
Год выпуска диска: 1991
Производитель диска: Fantasy Records
Аудио кодек: FLAC
Тип рипа: tracks+.cue
Битрейт аудио: lossless
Продолжительность: 47:23

Треклист:
01. The Little Purple Flower (Parts I & II) (10:56)
02. Put-Tin (4:10)
03. A Chromatic Love Affair (4:23)
04. Boola, Boola (3:40)
05. A Johnny Hodges Medley: Warm Valley Drag (8:27)
06. Salome (3:47)
07. Swamp Goo (4:43)
08. Up-Jamp (3:29)
09. Take The 'A' Train (3:49)

Автор рипа garet jax
 
Exact Audio Copy V0.99 prebeta 4 from 23. January 2008

EAC extraction logfile from 18. April 2009, 23:03

Duke Ellington / Yale Concert

Used drive : LITE-ON CD-RW SOHR-5238S Adapter: 5 ID: 1

Read mode : SecureUtilize accurate stream : YesDefeat audio cache : YesMake use of C2 pointers : No

Read offset correction : 6Overread into Lead-In and Lead-Out : NoFill up missing offset samples with silence : YesDelete leading and trailing silent blocks : NoNull samples used in CRC calculations : YesUsed interface : Installed external ASPI interfaceGap handling : Appended to previous track

Used output format : Internal WAV RoutinesSample format : 44.100 Hz; 16 Bit; Stereo

TOC of the extracted CD

Track | Start | Length | Start sector | End sector --------------------------------------------------------- 1 | 0:00.00 | 10:55.45 | 0 | 49169 2 | 10:55.45 | 4:10.15 | 49170 | 67934 3 | 15:05.60 | 4:23.00 | 67935 | 87659 4 | 19:28.60 | 3:40.37 | 87660 | 104196 5 | 23:09.22 | 8:26.60 | 104197 | 142206 6 | 31:36.07 | 3:46.43 | 142207 | 159199 7 | 35:22.50 | 4:42.57 | 159200 | 180406 8 | 40:05.32 | 3:29.28 | 180407 | 196109 9 | 43:34.60 | 3:48.50 | 196110 | 213259

Track 1

Filename J:\EAC\Duke Yale\01 - The Little Purple Flower (Parts I & II).wav

Pre-gap length 0:00:02.00

Peak level 84.9 % Track quality 100.0 % Test CRC D49B2296 Copy CRC D49B2296 Cannot be verified as accurate (confidence 2) [E9D216BB], AccurateRip returned [DC317FE8] Copy OK

Track 2

Filename J:\EAC\Duke Yale\02 - Put-Tin.wav

Pre-gap length 0:00:00.20

Peak level 75.6 % Track quality 100.0 % Test CRC 32B91EE4 Copy CRC 32B91EE4 Cannot be verified as accurate (confidence 2) [C2310F97], AccurateRip returned [47398978] Copy OK

Track 3

Filename J:\EAC\Duke Yale\03 - A Chromatic Love Affair.wav

Pre-gap length 0:00:02.63

Peak level 71.7 % Track quality 99.9 % Test CRC A3920EE9 Copy CRC A3920EE9 Cannot be verified as accurate (confidence 2) [048B1D36], AccurateRip returned [77FEEA73] Copy OK

Track 4

Filename J:\EAC\Duke Yale\04 - Boola, Boola.wav

Pre-gap length 0:00:00.63

Peak level 89.7 % Track quality 99.9 % Test CRC C1FE175A Copy CRC C1FE175A Cannot be verified as accurate (confidence 2) [9F37F51B], AccurateRip returned [93D5183F] Copy OK

Track 5

Filename J:\EAC\Duke Yale\05 - A Johnny Hodges Medley; Warm Valley Drag.wav

Pre-gap length 0:00:02.15

Peak level 94.6 % Track quality 100.0 % Test CRC 1C34F1FB Copy CRC 1C34F1FB Cannot be verified as accurate (confidence 2) [86D4D4F5], AccurateRip returned [DC58FF3F] Copy OK

Track 6

Filename J:\EAC\Duke Yale\06 - Salome.wav

Pre-gap length 0:00:00.15

Peak level 99.5 % Track quality 100.0 % Test CRC F0879CD3 Copy CRC F0879CD3 Cannot be verified as accurate (confidence 2) [5D5036F9], AccurateRip returned [48487A8F] Copy OK

Track 7

Filename J:\EAC\Duke Yale\07 - Swamp Goo.wav

Pre-gap length 0:00:00.28

Peak level 70.7 % Track quality 100.0 % Test CRC 8C6AE98A Copy CRC 8C6AE98A Cannot be verified as accurate (confidence 2) [40B2F9AA], AccurateRip returned [7DAFA328] Copy OK

Track 8

Filename J:\EAC\Duke Yale\08 - Up-Jump.wav

Pre-gap length 0:00:00.07

Peak level 90.7 % Track quality 100.0 % Test CRC 6553DF35 Copy CRC 6553DF35 Track not present in AccurateRip database Copy OK

Track 9

Filename J:\EAC\Duke Yale\09 - Take The 'A' Train.wav

Pre-gap length 0:00:00.23

Peak level 70.3 % Track quality 100.0 % Test CRC DF6379F0 Copy CRC DF6379F0 Track not present in AccurateRip database Copy OK

7 track(s) could not be verified as accurate 2 track(s) not present in the AccurateRip database

No tracks could be verified as accurateYou may have a different pressing from the one(s) in the database

No errors occurred

End of status report


Трекер:  [ 17-Фев-2012 10:33 ]

  

Скачать .torrent

Размер .torrent файла 7 KB


Размер: 267 MB
Хэш (hash) релиза: 9048c3126a9115580a1f77a5b770deffc9a08437

Еще никто не оставлял запись к записи скачать торрент Duke Ellington & His Orchestra — Yale Concert . Будь первым!

!Обратная связь