Скачать через торрент музыку Clarence Williams - 1929 {The Chronological Classics, 791} - 1994, FLAC бесплатно без регистрации torrent

Если у вас наблюдаются проблемы со скриншотами, переходом по ссылками, скачиванием торрентов - проблемы в блокировщике рекламы AdBlock. #хорошегоДня!


Статистика раздачи
Размер:  221 MB   |    Зарегистрирован:  5 лет 8 месяцев   |    .torrent скачан:  29 раз   |   
Раздают:  1  
   
Загрузка...
 
Автор Сообщение

Umakiro

avatar Umakiro


Clarence Williams – 1929 {The Chronological Classics, 791}

Жанр: Dixieland, New Orleans Jazz
Год издания диска: 1994
Издатель (лейбл): Classics
Номер по каталогу: 791
Аудиокодек: FLAC (*.flac)
Тип рипа: tracks+.cue
Битрейт аудио: lossless
Продолжительность: 68:28
Источник: вата
Наличие сканов в содержимом раздачи: плохонькие

Треклист:
01. Hot Lovin' (Barrel House Five Orchestra) (3:05)
02. Mama Stayed Out (Barrel House Five Orchestra) (3:13)
03. Nobody's Business (How I Love That Man) (Barrel House Five Orchestra) (2:56)
04. Endurance Stomp (Barrel House Five Orchestra) (2:56)
05. Some Do And Some Don't (Barrel House Five Orchestra) (3:02)
06. Scufflin' Blues (Barrel House Five Orchestra) (3:07)
07. If You Like Me Like I Like You (Clarence Williams' Jazz Kings) (2:55)
08. Have You Ever Felt That Way? (Clarence Williams' Jazz Kings) (3:04)
09. A Pane In The Glass (Clarence Williams) (3:06)
10. Too Low (Clarence Williams) (2:58)
11. Mississippi Blues (Home Town Toddle) (Clarence Williams' Washboard Band) (3:13)
12. Steamboat Days (Clarence Williams' Washboard Band) (3:20)
13. Close Fit Blues (Memphis Jazzers) (3:12)
14. Baby, Won't You Please Come Home? (Memphis Jazzers) (3:39)
15. Breeze (Blow My Baby Back To Me) (Clarence Williams' Jazz Kings) (2:59)
16. Mountain City Blues (Clarence Williams' Jazz Kings) (3:01)
17. I'm Not Worryin' (Clarence Williams And His Band) (3:31)
18. Touch-Down (Clarence Williams And His Band) (2:55)
19. In Our Cottage Of Love (Clarence Williams' Washboard Band) (3:20)
20. Lazy Mama (Clarence Williams' Washboard Band) (3:01)
21. In Our Cottage Of Love (Clarence Williams' Jazz Kings) (2:53)
22. Them Things Got Me (Clarence Williams' Jazz Kings) (3:02)
 
 
Exact Audio Copy V1.0 beta 2 from 29. April 2011

EAC extraction logfile from 26. July 2011, 9:38

Clarence Williams / 1929

Used drive : Optiarc DVD RW AD-7170A Adapter: 1 ID: 0

Read mode : SecureUtilize accurate stream : YesDefeat audio cache : YesMake use of C2 pointers : No

Read offset correction : 48Overread into Lead-In and Lead-Out : NoFill up missing offset samples with silence : YesDelete leading and trailing silent blocks : NoNull samples used in CRC calculations : YesUsed interface : Native Win32 interface for Win NT & 2000Gap handling : Appended to previous track

Used output format : User Defined EncoderSelected bitrate : 1024 kBit/sQuality : HighAdd ID3 tag : NoCommand line compressor : C:\Program Files (x86)\Exact Audio Copy\Flac\flac.exeAdditional command line options : -8 -V -T "ARTIST=%artist%" -T "TITLE=%title%" -T "ALBUM=%albumtitle%" -T "DATE=%year%" -T "TRACKNUMBER=%tracknr%" -T "GENRE=%genre%" -T "PERFORMER=%albuminterpret%" -T "COMPOSER=%composer%" %haslyrics%--tag-from-file=LYRICS

TOC of the extracted CD

Track | Start | Length | Start sector | End sector --------------------------------------------------------- 1 | 0:00.33 | 3:05.00 | 33 | 13907 2 | 3:05.33 | 3:13.07 | 13908 | 28389 3 | 6:18.40 | 2:55.43 | 28390 | 41557 4 | 9:14.08 | 2:55.45 | 41558 | 54727 5 | 12:09.53 | 3:01.72 | 54728 | 68374 6 | 15:11.50 | 3:06.68 | 68375 | 82392 7 | 18:18.43 | 2:55.27 | 82393 | 95544 8 | 21:13.70 | 3:04.25 | 95545 | 109369 9 | 24:18.20 | 3:05.45 | 109370 | 123289 10 | 27:23.65 | 2:58.30 | 123290 | 136669 11 | 30:22.20 | 3:12.60 | 136670 | 151129 12 | 33:35.05 | 3:20.08 | 151130 | 166137 13 | 36:55.13 | 3:12.35 | 166138 | 180572 14 | 40:07.48 | 3:38.40 | 180573 | 196962 15 | 43:46.13 | 2:59.00 | 196963 | 210387 16 | 46:45.13 | 3:01.17 | 210388 | 223979 17 | 49:46.30 | 3:30.60 | 223980 | 239789 18 | 53:17.15 | 2:54.53 | 239790 | 252892 19 | 56:11.68 | 3:20.22 | 252893 | 267914 20 | 59:32.15 | 3:00.70 | 267915 | 281484 21 | 62:33.10 | 2:53.25 | 281485 | 294484 22 | 65:26.35 | 3:02.20 | 294485 | 308154

Track 1

Filename E:\Vuze_BitTorrent_DLs\EAC Rips\Clarence Williams - 1929 (1994) [FLAC] {Classics 791}\01 - Barrel House Five Orchestra - Hot Lovin'.wav

Pre-gap length 0:00:02.44

Peak level 72.2 % Extraction speed 4.5 X Track quality 100.0 % Test CRC 9DC47FD6 Copy CRC 9DC47FD6 Copy OK

Track 2

Filename E:\Vuze_BitTorrent_DLs\EAC Rips\Clarence Williams - 1929 (1994) [FLAC] {Classics 791}\02 - Barrel House Five Orchestra - Mama Stayed Out.wav

Pre-gap length 0:00:01.24

Peak level 73.9 % Extraction speed 4.8 X Track quality 100.0 % Test CRC 1D5C6DBB Copy CRC 1D5C6DBB Copy OK

Track 3

Filename E:\Vuze_BitTorrent_DLs\EAC Rips\Clarence Williams - 1929 (1994) [FLAC] {Classics 791}\03 - Barrel House Five Orchestra - Nobody's Business (How I Love That Man).wav

Pre-gap length 0:00:01.29

Peak level 95.7 % Extraction speed 5.1 X Track quality 100.0 % Test CRC 441F499C Copy CRC 441F499C Copy OK

Track 4

Filename E:\Vuze_BitTorrent_DLs\EAC Rips\Clarence Williams - 1929 (1994) [FLAC] {Classics 791}\04 - Barrel House Five Orchestra - Endurance Stomp.wav

Pre-gap length 0:00:01.40

Peak level 77.1 % Extraction speed 4.2 X Track quality 99.9 % Test CRC F248F204 Copy CRC F248F204 Copy OK

Track 5

Filename E:\Vuze_BitTorrent_DLs\EAC Rips\Clarence Williams - 1929 (1994) [FLAC] {Classics 791}\05 - Barrel House Five Orchestra - Some Do and Some Don't.wav

Pre-gap length 0:00:01.26

Peak level 75.9 % Extraction speed 5.5 X Track quality 100.0 % Test CRC E3A74A32 Copy CRC E3A74A32 Copy OK

Track 6

Filename E:\Vuze_BitTorrent_DLs\EAC Rips\Clarence Williams - 1929 (1994) [FLAC] {Classics 791}\06 - Barrel House Five Orchestra - Scufflin' Blues.wav

Pre-gap length 0:00:01.20

Peak level 66.1 % Extraction speed 4.6 X Track quality 99.9 % Test CRC A250D122 Copy CRC A250D122 Copy OK

Track 7

Filename E:\Vuze_BitTorrent_DLs\EAC Rips\Clarence Williams - 1929 (1994) [FLAC] {Classics 791}\07 - Clarence Williams' Jazz Kings - If You Like Me Like I Like You.wav

Pre-gap length 0:00:01.57

Peak level 85.1 % Extraction speed 6.2 X Track quality 100.0 % Test CRC A0FF3489 Copy CRC A0FF3489 Copy OK

Track 8

Filename E:\Vuze_BitTorrent_DLs\EAC Rips\Clarence Williams - 1929 (1994) [FLAC] {Classics 791}\08 - Clarence Williams' Jazz Kings - Have You Ever Felt That Way.wav

Pre-gap length 0:00:01.42

Peak level 74.1 % Extraction speed 6.1 X Track quality 100.0 % Test CRC FF76FE84 Copy CRC FF76FE84 Copy OK

Track 9

Filename E:\Vuze_BitTorrent_DLs\EAC Rips\Clarence Williams - 1929 (1994) [FLAC] {Classics 791}\09 - Clarence Williams - A Pane In the glass.wav

Pre-gap length 0:00:01.69

Peak level 73.2 % Extraction speed 5.2 X Track quality 99.9 % Test CRC E5B11BC1 Copy CRC E5B11BC1 Copy OK

Track 10

Filename E:\Vuze_BitTorrent_DLs\EAC Rips\Clarence Williams - 1929 (1994) [FLAC] {Classics 791}\10 - Clarence Williams - Too Low.wav

Pre-gap length 0:00:01.00

Peak level 80.3 % Extraction speed 6.8 X Track quality 100.0 % Test CRC F29B9DD9 Copy CRC F29B9DD9 Copy OK

Track 11

Filename E:\Vuze_BitTorrent_DLs\EAC Rips\Clarence Williams - 1929 (1994) [FLAC] {Classics 791}\11 - Clarence Williams' Washboard Band - Mississippi Blues (Home Town Toddle).wav

Pre-gap length 0:00:01.42

Peak level 63.5 % Extraction speed 7.2 X Track quality 100.0 % Test CRC C5C0DD2C Copy CRC C5C0DD2C Copy OK

Track 12

Filename E:\Vuze_BitTorrent_DLs\EAC Rips\Clarence Williams - 1929 (1994) [FLAC] {Classics 791}\12 - Clarence Williams' Washboard Band - Steamboat Days.wav

Pre-gap length 0:00:01.40

Peak level 76.7 % Extraction speed 7.4 X Track quality 100.0 % Test CRC 9F6F0343 Copy CRC 9F6F0343 Copy OK

Track 13

Filename E:\Vuze_BitTorrent_DLs\EAC Rips\Clarence Williams - 1929 (1994) [FLAC] {Classics 791}\13 - Memphis Jazzers - Close Fit Blues.wav

Pre-gap length 0:00:01.44

Peak level 85.4 % Extraction speed 7.6 X Track quality 100.0 % Test CRC 61004313 Copy CRC 61004313 Copy OK

Track 14

Filename E:\Vuze_BitTorrent_DLs\EAC Rips\Clarence Williams - 1929 (1994) [FLAC] {Classics 791}\14 - Memphis Jazzers - Baby, Won't You Please Come Home.wav

Pre-gap length 0:00:01.17

Peak level 89.7 % Extraction speed 8.0 X Track quality 100.0 % Test CRC 35ACB481 Copy CRC 35ACB481 Copy OK

Track 15

Filename E:\Vuze_BitTorrent_DLs\EAC Rips\Clarence Williams - 1929 (1994) [FLAC] {Classics 791}\15 - Clarence Williams' Jazz Kings - Breeze (Blow My Baby Back To Me).wav

Pre-gap length 0:00:01.20

Peak level 77.4 % Extraction speed 7.9 X Track quality 100.0 % Test CRC 9C748D5B Copy CRC 9C748D5B Copy OK

Track 16

Filename E:\Vuze_BitTorrent_DLs\EAC Rips\Clarence Williams - 1929 (1994) [FLAC] {Classics 791}\16 - Clarence Williams' Jazz Kings - Mountain City Blues.wav

Pre-gap length 0:00:01.00

Peak level 92.9 % Extraction speed 6.0 X Track quality 99.9 % Test CRC AED35F65 Copy CRC AED35F65 Copy OK

Track 17

Filename E:\Vuze_BitTorrent_DLs\EAC Rips\Clarence Williams - 1929 (1994) [FLAC] {Classics 791}\17 - Clarence Williams And His Band - I'm Not Worryin'.wav

Pre-gap length 0:00:01.33

Peak level 93.5 % Extraction speed 6.5 X Track quality 99.9 % Test CRC 44E71108 Copy CRC 44E71108 Copy OK

Track 18

Filename E:\Vuze_BitTorrent_DLs\EAC Rips\Clarence Williams - 1929 (1994) [FLAC] {Classics 791}\18 - Clarence Williams And His Band - Touch-Down.wav

Pre-gap length 0:00:01.06

Peak level 98.7 % Extraction speed 8.2 X Track quality 100.0 % Test CRC 8608E093 Copy CRC 8608E093 Copy OK

Track 19

Filename E:\Vuze_BitTorrent_DLs\EAC Rips\Clarence Williams - 1929 (1994) [FLAC] {Classics 791}\19 - Clarence Williams' Washboard Band - In Our Cottage Of Love.wav

Pre-gap length 0:00:01.17

Peak level 79.7 % Extraction speed 8.4 X Track quality 100.0 % Test CRC 6A611F78 Copy CRC 6A611F78 Copy OK

Track 20

Filename E:\Vuze_BitTorrent_DLs\EAC Rips\Clarence Williams - 1929 (1994) [FLAC] {Classics 791}\20 - Clarence Williams' Washboard Band - Lazy Mama.wav

Pre-gap length 0:00:01.02

Peak level 71.2 % Extraction speed 6.5 X Track quality 99.9 % Test CRC C9011B1B Copy CRC C9011B1B Copy OK

Track 21

Filename E:\Vuze_BitTorrent_DLs\EAC Rips\Clarence Williams - 1929 (1994) [FLAC] {Classics 791}\21 - Clarence Williams' Jazz Kings - In Our Cottage Of Love.wav

Pre-gap length 0:00:01.13

Peak level 79.9 % Extraction speed 6.4 X Track quality 99.9 % Test CRC 56C3FDDC Copy CRC 56C3FDDC Copy OK

Track 22

Filename E:\Vuze_BitTorrent_DLs\EAC Rips\Clarence Williams - 1929 (1994) [FLAC] {Classics 791}\22 - Clarence Williams' Jazz Kings - Them Things Got Me.wav

Pre-gap length 0:00:01.02

Peak level 91.2 % Extraction speed 6.9 X Track quality 99.9 % Test CRC FCB24FB5 Copy CRC FCB24FB5 Copy OK

No errors occurred

End of status report

==== Log checksum 00CD83F33F88F578A4B7E81841606BC106F4CBB644527B349D6CAB914559FDA3 ====
 
REM GENRE JazzREM DATE 1994REM DISCID 47100C16REM COMMENT "ExactAudioCopy v1.0b2"PERFORMER "Clarence Williams"TITLE "1929 {Chronological Classics, 791}"FILE "01. Hot Lovin'.flac" WAVE TRACK 01 AUDIO PREGAP 00:00:33 INDEX 01 00:00:00 TRACK 02 AUDIO INDEX 00 03:03:57FILE "02. Mama Stayed Out.flac" WAVE INDEX 01 00:00:00 TRACK 03 AUDIO INDEX 00 03:11:60FILE "03. Nobody's Business (How I Love That Man).flac" WAVE INDEX 01 00:00:00 TRACK 04 AUDIO INDEX 00 02:54:13FILE "04. Endurance Stomp.flac" WAVE INDEX 01 00:00:00 TRACK 05 AUDIO INDEX 00 02:54:25FILE "05. Some Do And Some Don't.flac" WAVE INDEX 01 00:00:00 TRACK 06 AUDIO INDEX 00 03:00:57FILE "06. Scufflin' Blues.flac" WAVE INDEX 01 00:00:00 TRACK 07 AUDIO INDEX 00 03:05:25FILE "07. If You Like Me Like I Like You.flac" WAVE INDEX 01 00:00:00 TRACK 08 AUDIO INDEX 00 02:53:70FILE "08. Have You Ever Felt That Way.flac" WAVE INDEX 01 00:00:00 TRACK 09 AUDIO INDEX 00 03:02:48FILE "09. A Pane In The glass.flac" WAVE INDEX 01 00:00:00 TRACK 10 AUDIO INDEX 00 03:04:45FILE "10. Too Low.flac" WAVE INDEX 01 00:00:00 TRACK 11 AUDIO INDEX 00 02:56:73FILE "11. Mississippi Blues (Home Town Toddle).flac" WAVE INDEX 01 00:00:00 TRACK 12 AUDIO INDEX 00 03:11:30FILE "12. Steamboat Days.flac" WAVE INDEX 01 00:00:00 TRACK 13 AUDIO INDEX 00 03:18:50FILE "13. Close Fit Blues.flac" WAVE INDEX 01 00:00:00 TRACK 14 AUDIO INDEX 00 03:11:22FILE "14. Baby, Won't You Please Come Home.flac" WAVE INDEX 01 00:00:00 TRACK 15 AUDIO INDEX 00 03:37:25FILE "15. Breeze (Blow My Baby Back To Me).flac" WAVE INDEX 01 00:00:00 TRACK 16 AUDIO INDEX 00 02:58:00FILE "16. Mountain City Blues.flac" WAVE INDEX 01 00:00:00 TRACK 17 AUDIO INDEX 00 02:59:67FILE "17. I'm Not Worryin'.flac" WAVE INDEX 01 00:00:00 TRACK 18 AUDIO INDEX 00 03:29:55FILE "18. Touch-Down.flac" WAVE INDEX 01 00:00:00 TRACK 19 AUDIO INDEX 00 02:53:40FILE "19. In Our Cottage Of Love.flac" WAVE INDEX 01 00:00:00 TRACK 20 AUDIO INDEX 00 03:19:20FILE "20. Lazy Mama.flac" WAVE INDEX 01 00:00:00 TRACK 21 AUDIO INDEX 00 02:59:60FILE "21. In Our Cottage Of Love.flac" WAVE INDEX 01 00:00:00 TRACK 22 AUDIO INDEX 00 02:52:23FILE "22. Them Things Got Me.flac" WAVE INDEX 01 00:00:00
 

Трекер:  [ 17-Фев-2012 10:31 ]

  

Скачать .torrent

Размер .torrent файла 19 KB


Размер: 221 MB
Хэш (hash) релиза: 9fdb5fbcd5d564bf78b530f7323ce2677336bf1c

Еще никто не оставлял запись к записи скачать торрент Clarence Williams - 1929 {The Chronological Classics, 791} - 1994, FLAC . Будь первым!

!Обратная связь