Скачать через торрент музыку Clarence Williams - 1930-1931 {The Chronological Classics, 832} - 1995, FLAC бесплатно без регистрации torrent

Если у вас наблюдаются проблемы со скриншотами, переходом по ссылками, скачиванием торрентов - проблемы в блокировщике рекламы AdBlock. #хорошегоДня!


Статистика раздачи
Размер:  200 MB   |    Зарегистрирован:  5 лет 8 месяцев   |    .torrent скачан:  30 раз   |   
Раздают:  1  
   
Загрузка...
 
Автор Сообщение

Umakiro

avatar Umakiro


Clarence Williams – 1930-1931 {The Chronological Classics, 832}

Жанр: Dixieland, New Orleans Jazz
Год издания диска: 1995
Издатель (лейбл): Classics
Номер по каталогу: 832
Аудиокодек: FLAC (*.flac)
Тип рипа: tracks+.cue
Битрейт аудио: lossless
Продолжительность: 67:16
Источник: вата
Наличие сканов в содержимом раздачи: плохонькие

Треклист:
01. He Wouldn't Stop Doin It (Clarence Williams' Novelty Band) (3:00)
02. You're Bound To Look Like A Monkey When You Get Old (Clarence Williams' Novelty Band) (3:07)
03. You Rascal You (Clarence Williams) (3:40)
04. Michigan Water Blues (Clarence Williams) (3:23)
05. If I Could Be With You (One Hour Tonight) (Lazy Levee Loungers) (3:14)
06. Shout, Sister, Shout! (Lazy Levee Loungers) (2:51)
07. Where That Ol Man River Flows (Clarence Williams' Washboard Band) (3:06)
08. Shout, Sister, Shout! (Clarence Williams' Washboard Band) (3:01)
09. High Society Blues (Clarence Williams And His Jazz Kings) (3:03)
10. Lazy Levee Loungers (Clarence Williams And His Jazz Kings) (2:46)
11. Sittin On Top Of The World (Clarence Williams' Jug Band) (3:03)
12. Kansas City Man Blues (Clarence Williams' Jug Band) (3:00)
13. Hot Lovin' (Clarence Williams And His Orchestra) (3:01)
14. Papa De-Da-Da (Clarence Williams And His Orchestra) (3:04)
15. Baby, Won't You Please Come Home? (Clarence Williams And His Orchestra) (2:42)
16. Kentucky (Clarence Williams' Washboard Band) (2:57)
17. Papa De-Da-Da (Clarence Williams' Washboard Band) (3:15)
18. Loving (Clarence Williams' Washboard Band) (3:04)
19. Shout, Sister, Shout! (Clarence Williams And His Orchestra) (2:47)
20. Shout, Sister, Shout! (Clarence Williams And His Jazz Kings) (2:50)
21. Papa De-Da-Da (Clarence Williams And His Jazz Kings) (3:28)
22. Baby, Won't You Please Come Home? (Clarence Williams And His Jazz Kings) (2:55)
 
 
Exact Audio Copy V1.0 beta 3 from 29. August 2011

EAC extraction logfile from 12. December 2011, 6:32

Clarence Williams / The Chronological Clarence Williams 1930-1931

Used drive : HL-DT-STDVDRAM GT20N Adapter: 2 ID: 0

Read mode : SecureUtilize accurate stream : YesDefeat audio cache : YesMake use of C2 pointers : No

Read offset correction : 667Overread into Lead-In and Lead-Out : NoFill up missing offset samples with silence : YesDelete leading and trailing silent blocks : NoNull samples used in CRC calculations : YesUsed interface : Native Win32 interface for Win NT & 2000Gap handling : Appended to previous track

Used output format : User Defined EncoderSelected bitrate : 1024 kBit/sQuality : HighAdd ID3 tag : NoCommand line compressor : C:\Program Files (x86)\Exact Audio Copy\Flac\flac.exeAdditional command line options : -8 -V -T "ARTIST=%artist%" -T "TITLE=%title%" -T "ALBUM=%albumtitle%" -T "DATE=%year%" -T "TRACKNUMBER=%tracknr%" -T "GENRE=%genre%" -T "PERFORMER=%albuminterpret%" -T "COMPOSER=%composer%" %haslyrics%--tag-from-file=LYRICS="%lyricsfile%"%haslyrics% -T "ALBUMARTIST=%albumartist%" -T "DISCNUMBER=%cdnumber%" -T "TOTALDISCS=%totalcds%" -T "TOTALTRACKS=%numtracks%" -T "COMMENT=%comment%" %source% -o %dest%

TOC of the extracted CD

Track | Start | Length | Start sector | End sector --------------------------------------------------------- 1 | 0:00.32 | 2:59.50 | 32 | 13506 2 | 3:00.07 | 3:06.60 | 13507 | 27516 3 | 6:06.67 | 3:40.35 | 27517 | 44051 4 | 9:47.27 | 3:23.05 | 44052 | 59281 5 | 13:10.32 | 3:13.65 | 59282 | 73821 6 | 16:24.22 | 2:51.03 | 73822 | 86649 7 | 19:15.25 | 3:05.65 | 86650 | 100589 8 | 22:21.15 | 3:00.57 | 100590 | 114146 9 | 25:21.72 | 3:03.03 | 114147 | 127874 10 | 28:25.00 | 2:45.67 | 127875 | 140316 11 | 31:10.67 | 3:03.03 | 140317 | 154044 12 | 34:13.70 | 3:00.07 | 154045 | 167551 13 | 37:14.02 | 3:00.58 | 167552 | 181109 14 | 40:14.60 | 3:04.07 | 181110 | 194916 15 | 43:18.67 | 2:41.55 | 194917 | 207046 16 | 46:00.47 | 2:56.45 | 207047 | 220291 17 | 48:57.17 | 3:15.20 | 220292 | 234936 18 | 52:12.37 | 3:03.70 | 234937 | 248731 19 | 55:16.32 | 2:47.03 | 248732 | 261259 20 | 58:03.35 | 2:50.05 | 261260 | 274014 21 | 60:53.40 | 3:27.67 | 274015 | 289606 22 | 64:21.32 | 2:55.10 | 289607 | 302741

Track 1

Filename E:\ClarenceWilliiams1930-1931_832\01 - Clarence Williams' Novelty Band - He Wouldn't Stop Doin It.wav

Pre-gap length 0:00:02.42

Peak level 74.8 % Extraction speed 2.3 X Track quality 100.0 % Test CRC FD45C5C1 Copy CRC FD45C5C1 Track not present in AccurateRip database Copy OK

Track 2

Filename E:\ClarenceWilliiams1930-1931_832\02 - Clarence Williams' Novelty Band - You're Bound To Look Like A Monkey.wav

Pre-gap length 0:00:02.33

Peak level 90.3 % Extraction speed 2.4 X Track quality 100.0 % Test CRC 32D6E9E1 Copy CRC 32D6E9E1 Track not present in AccurateRip database Copy OK

Track 3

Filename E:\ClarenceWilliiams1930-1931_832\03 - Clarence Williams - You Rascal You.wav

Pre-gap length 0:00:02.00

Peak level 71.2 % Extraction speed 2.7 X Track quality 100.0 % Test CRC B204EC38 Copy CRC B204EC38 Track not present in AccurateRip database Copy OK

Track 4

Filename E:\ClarenceWilliiams1930-1931_832\04 - Clarence Williams - Michigan Water Blues.wav

Pre-gap length 0:00:01.86

Peak level 70.1 % Extraction speed 2.9 X Track quality 100.0 % Test CRC 4F8FC44D Copy CRC 4F8FC44D Track not present in AccurateRip database Copy OK

Track 5

Filename E:\ClarenceWilliiams1930-1931_832\05 - Lazy Levee Loungers - If I Could Be With You.wav

Pre-gap length 0:00:01.96

Peak level 65.4 % Extraction speed 2.0 X Track quality 99.9 % Test CRC C0E749CB Copy CRC C0E749CB Track not present in AccurateRip database Copy OK

Track 6

Filename E:\ClarenceWilliiams1930-1931_832\06 - Lazy Levee Loungers - Shout, Sister, Shout.wav

Pre-gap length 0:00:02.02

Peak level 71.8 % Extraction speed 1.6 X Track quality 100.0 % Test CRC 225CC208 Copy CRC 225CC208 Track not present in AccurateRip database Copy OK

Track 7

Filename E:\ClarenceWilliiams1930-1931_832\07 - Clarence Williams' Washboard Band - Where That Ol Man River Flows.wav

Pre-gap length 0:00:01.80

Peak level 61.4 % Extraction speed 1.7 X Track quality 100.0 % Test CRC 91A8A502 Copy CRC 91A8A502 Track not present in AccurateRip database Copy OK

Track 8

Filename E:\ClarenceWilliiams1930-1931_832\08 - Clarence Williams' Washboard Band - Shout, Sister, Shout.wav

Pre-gap length 0:00:01.77

Peak level 69.7 % Extraction speed 1.7 X Track quality 100.0 % Test CRC 9F615A47 Copy CRC 9F615A47 Track not present in AccurateRip database Copy OK

Track 9

Filename E:\ClarenceWilliiams1930-1931_832\09 - Clarence Williams And Jazz Kings - High Society Blues.wav

Pre-gap length 0:00:01.76

Peak level 74.8 % Extraction speed 1.8 X Track quality 100.0 % Test CRC 3AA30763 Copy CRC 3AA30763 Track not present in AccurateRip database Copy OK

Track 10

Filename E:\ClarenceWilliiams1930-1931_832\10 - Clarence Williams And Jazz Kings - Lazy Levee Loungers.wav

Pre-gap length 0:00:01.57

Peak level 63.5 % Extraction speed 1.8 X Track quality 100.0 % Test CRC 0084A657 Copy CRC 0084A657 Track not present in AccurateRip database Copy OK

Track 11

Filename E:\ClarenceWilliiams1930-1931_832\11 - Clarence Williams' Jug Band - Sittin On Top of the World.wav

Pre-gap length 0:00:01.80

Peak level 66.7 % Extraction speed 1.9 X Track quality 100.0 % Test CRC BDF1A601 Copy CRC BDF1A601 Track not present in AccurateRip database Copy OK

Track 12

Filename E:\ClarenceWilliiams1930-1931_832\12 - Clarence Williams - Kansas City Man Blues.wav

Pre-gap length 0:00:01.73

Peak level 76.5 % Extraction speed 2.0 X Track quality 100.0 % Test CRC 846E1F50 Copy CRC 846E1F50 Track not present in AccurateRip database Copy OK

Track 13

Filename E:\ClarenceWilliiams1930-1931_832\13 - Clarence Williams And His Orchestra - Hot Lovin.wav

Pre-gap length 0:00:01.80

Peak level 69.7 % Extraction speed 2.0 X Track quality 100.0 % Test CRC 54BA5DC2 Copy CRC 54BA5DC2 Track not present in AccurateRip database Copy OK

Track 14

Filename E:\ClarenceWilliiams1930-1931_832\14 - Clarence Williams And His Orchestra - Papa De-Da-Da.wav

Pre-gap length 0:00:01.80

Peak level 65.9 % Extraction speed 2.1 X Track quality 100.0 % Test CRC FEC0BACC Copy CRC FEC0BACC Track not present in AccurateRip database Copy OK

Track 15

Filename E:\ClarenceWilliiams1930-1931_832\15 - Clarence Williams And His Orchestra - Baby, Won't You Please Come Home.wav

Pre-gap length 0:00:01.96

Peak level 65.9 % Extraction speed 2.1 X Track quality 100.0 % Test CRC 2B2384E7 Copy CRC 2B2384E7 Track not present in AccurateRip database Copy OK

Track 16

Filename E:\ClarenceWilliiams1930-1931_832\16 - Clarence Williams' Washboard Band - Kentucky.wav

Pre-gap length 0:00:01.89

Peak level 83.1 % Extraction speed 1.8 X Track quality 99.9 % Test CRC 353CF817 Copy CRC 353CF817 Track not present in AccurateRip database Copy OK

Track 17

Filename E:\ClarenceWilliiams1930-1931_832\17 - Clarence Williams' Washboard Band - Papa De-Da-Da.wav

Pre-gap length 0:00:01.73

Peak level 69.2 % Extraction speed 2.3 X Track quality 100.0 % Test CRC F8A6DF8D Copy CRC F8A6DF8D Track not present in AccurateRip database Copy OK

Track 18

Filename E:\ClarenceWilliiams1930-1931_832\18 - Clarence Williams' Washboard Band - Loving.wav

Pre-gap length 0:00:01.69

Peak level 64.4 % Extraction speed 2.0 X Track quality 99.9 % Test CRC 99DB1987 Copy CRC 99DB1987 Track not present in AccurateRip database Copy OK

Track 19

Filename E:\ClarenceWilliiams1930-1931_832\19 - Clarence Williams And His Orchestra - Shout, Sister, Shout.wav

Pre-gap length 0:00:01.40

Peak level 59.3 % Extraction speed 2.3 X Track quality 100.0 % Test CRC B5917FC1 Copy CRC B5917FC1 Track not present in AccurateRip database Copy OK

Track 20

Filename E:\ClarenceWilliiams1930-1931_832\20 - Clarence Williams And His Jazz Kings - Shout, Sister, Shout.wav

Pre-gap length 0:00:01.77

Peak level 93.1 % Extraction speed 2.4 X Track quality 100.0 % Test CRC 7C45E8B0 Copy CRC 7C45E8B0 Track not present in AccurateRip database Copy OK

Track 21

Filename E:\ClarenceWilliiams1930-1931_832\21 - Clarence Williams And His Jazz Kings - Papa De-Da-Da.wav

Pre-gap length 0:00:01.60

Peak level 97.5 % Extraction speed 2.5 X Track quality 100.0 % Test CRC 87566005 Copy CRC 87566005 Track not present in AccurateRip database Copy OK

Track 22

Filename E:\ClarenceWilliiams1930-1931_832\22 - Clarence Williams And His Jazz Kings - Baby, Won't You Please Come Home.wav

Pre-gap length 0:00:02.20

Peak level 85.5 % Extraction speed 2.5 X Track quality 100.0 % Test CRC 51362B7A Copy CRC 51362B7A Track not present in AccurateRip database Copy OK

None of the tracks are present in the AccurateRip database

No errors occurred

End of status report

==== Log checksum 46C6BFB8E20ED7A61F2B00BD21F09F2B0AF68D3AB86B85834D5C0322EF86AF1E ====
 
REM GENRE JazzREM DATE 1995REM DISCID 4E0FC416REM COMMENT "ExactAudioCopy v1.0b3"CATALOG 0000000000000PERFORMER "Clarence Williams"TITLE "1930-1931 {Chronological Classics, 832}"FILE "01. He Wouldn't Stop Doin It.flac" WAVE TRACK 01 AUDIO TITLE "He Wouldn't Stop Doin It" PERFORMER "Clarence Williams' Novelty Band" PREGAP 00:00:32 INDEX 01 00:00:00 TRACK 02 AUDIO TITLE "You're Bound To Look Like A Monkey When You Get Old" PERFORMER "Clarence Williams' Novelty Band" INDEX 00 02:57:25FILE "02. You're Bound To Look Like A Monkey When You Get Old.flac" WAVE INDEX 01 00:00:00 TRACK 03 AUDIO TITLE "You Rascal You" PERFORMER "Clarence Williams" INDEX 00 03:04:60FILE "03. You Rascal You.flac" WAVE INDEX 01 00:00:00 TRACK 04 AUDIO TITLE "Michigan Water Blues" PERFORMER "Clarence Williams" INDEX 00 03:38:45FILE "04. Michigan Water Blues.flac" WAVE INDEX 01 00:00:00 TRACK 05 AUDIO TITLE "If I Could Be With You (One Hour Tonight)" PERFORMER "Lazy Levee Loungers" INDEX 00 03:21:08FILE "05. If I Could Be With You (One Hour Tonight).flac" WAVE INDEX 01 00:00:00 TRACK 06 AUDIO TITLE "Shout, Sister, Shout!" PERFORMER "Lazy Levee Loungers" INDEX 00 03:11:63FILE "06. Shout, Sister, Shout!.flac" WAVE INDEX 01 00:00:00 TRACK 07 AUDIO TITLE "Where That Ol Man River Flows" PERFORMER "Clarence Williams' Washboard Band" INDEX 00 02:49:18FILE "07. Where That Ol Man River Flows.flac" WAVE INDEX 01 00:00:00 TRACK 08 AUDIO TITLE "Shout, Sister, Shout!" PERFORMER "Clarence Williams' Washboard Band" INDEX 00 03:04:07FILE "08. Shout, Sister, Shout!.flac" WAVE INDEX 01 00:00:00 TRACK 09 AUDIO TITLE "High Society Blues" PERFORMER "Clarence Williams And Jazz Kings" INDEX 00 02:59:00FILE "09. High Society Blues.flac" WAVE INDEX 01 00:00:00 TRACK 10 AUDIO TITLE "Lazy Levee Loungers" PERFORMER "Clarence Williams And Jazz Kings" INDEX 00 03:01:35FILE "10. Lazy Levee Loungers.flac" WAVE INDEX 01 00:00:00 TRACK 11 AUDIO TITLE "Sittin On Top Of The World" PERFORMER "Clarence Williams' Jug Band" INDEX 00 02:44:07FILE "11. Sittin On Top Of The World.flac" WAVE INDEX 01 00:00:00 TRACK 12 AUDIO TITLE "Kansas City Man Blues" PERFORMER "Clarence Williams' Jug Band" INDEX 00 03:01:23FILE "12. Kansas City Man Blues.flac" WAVE INDEX 01 00:00:00 TRACK 13 AUDIO TITLE "Hot Lovin'" PERFORMER "Clarence Williams And His Orchestra" INDEX 00 02:58:22FILE "13. Hot Lovin'.flac" WAVE INDEX 01 00:00:00 TRACK 14 AUDIO TITLE "Papa De-Da-Da" PERFORMER "Clarence Williams And His Orchestra" INDEX 00 02:58:73FILE "14. Papa De-Da-Da.flac" WAVE INDEX 01 00:00:00 TRACK 15 AUDIO TITLE "Baby, Won't You Please Come Home?" PERFORMER "Clarence Williams And His Orchestra" INDEX 00 03:02:10FILE "15. Baby, Won't You Please Come Home.flac" WAVE INDEX 01 00:00:00 TRACK 16 AUDIO TITLE "Kentucky" PERFORMER "Clarence Williams' Washboard Band" INDEX 00 02:39:63FILE "16. Kentucky.flac" WAVE INDEX 01 00:00:00 TRACK 17 AUDIO TITLE "Papa De-Da-Da" PERFORMER "Clarence Williams' Washboard Band" INDEX 00 02:54:65FILE "17. Papa De-Da-Da.flac" WAVE INDEX 01 00:00:00 TRACK 18 AUDIO TITLE "Loving" PERFORMER "Clarence Williams' Washboard Band" INDEX 00 03:13:43FILE "18. Loving.flac" WAVE INDEX 01 00:00:00 TRACK 19 AUDIO TITLE "Shout, Sister, Shout!" PERFORMER "Clarence Williams And His Orchestra" INDEX 00 03:02:40FILE "19. Shout, Sister, Shout!.flac" WAVE INDEX 01 00:00:00 TRACK 20 AUDIO TITLE "Shout, Sister, Shout!" PERFORMER "Clarence Williams And His Jazz Kings" INDEX 00 02:45:20FILE "20. Shout, Sister, Shout!.flac" WAVE INDEX 01 00:00:00 TRACK 21 AUDIO TITLE "Papa De-Da-Da" PERFORMER "Clarence Williams And His Jazz Kings" INDEX 00 02:48:35FILE "21. Papa De-Da-Da.flac" WAVE INDEX 01 00:00:00 TRACK 22 AUDIO TITLE "Baby, Won't You Please Come Home?" PERFORMER "Clarence Williams And His Jazz Kings" INDEX 00 03:25:52FILE "22. Baby, Won't You Please Come Home.flac" WAVE INDEX 01 00:00:00
 

Трекер:  [ 17-Фев-2012 10:31 ]

  

Скачать .torrent

Размер .torrent файла 18 KB


Размер: 200 MB
Хэш (hash) релиза: deecf155f300c2727dbaf84aefe7e11100dc4b15

Еще никто не оставлял запись к записи скачать торрент Clarence Williams - 1930-1931 {The Chronological Classics, 832} - 1995, FLAC . Будь первым!

!Обратная связь