Скачать через торрент музыку The Swingfield Big Band - Big Band Love Songs - 2001, FLAC бесплатно без регистрации torrent

Если у вас наблюдаются проблемы со скриншотами, переходом по ссылками, скачиванием торрентов - проблемы в блокировщике рекламы AdBlock. #хорошегоДня!


Статистика раздачи
Размер:  303 MB   |    Зарегистрирован:  5 лет 8 месяцев   |    .torrent скачан:  37 раз   |   
Раздают:  1  
   
Загрузка...
 
Автор Сообщение

Umakiro

avatar Umakiro


The Swingfield Big Band - Big Band Love Songs

Жанр: Swing, Jazz, Big Band
Страна-производитель диска: Canada
Год издания диска: 2001
Издатель (лейбл): Reflections
Номер по каталогу: 22462
Страна:
Продолжительность: 53:32
Аудиокодек: FLAC (*.flac)
Тип рипа: tracks+.cue
Битрейт аудио: lossless
Источник (релизер): tatzelworm
Наличие сканов в содержимом раздачи:
1. Moonlight Serenade
2. I'll Be Seeing You
3. Someday My Prince Will Come
4. Over the Rainbow
5. Moon River
6. Blue Moon
7. Smoke Gets in Your Eyes
8. In a Sentimental Mood
9. Sentimental Journey
10. As Time Goes By
11. When You Wish Upon a Star
12. I'll Never Smile Again
13. Thanks for the Memory
 
Exact Audio Copy V1.0 beta 1 from 15. November 2010

EAC extraction logfile from 9. December 2010, 0:58

Swingfield Big Band / Big Band Love Songs

Used drive : TSSTcorpCDDVDW SH-S223L Adapter: 0 ID: 3

Read mode : SecureUtilize accurate stream : YesDefeat audio cache : YesMake use of C2 pointers : No

Read offset correction : 6Overread into Lead-In and Lead-Out : NoFill up missing offset samples with silence : YesDelete leading and trailing silent blocks : NoNull samples used in CRC calculations : YesUsed interface : Installed external ASPI interfaceGap handling : Appended to previous track

Used output format : User Defined EncoderSelected bitrate : 1024 kBit/sQuality : HighAdd ID3 tag : NoCommand line compressor : C:\Program Files (x86)\Exact Audio Copy\Flac\flac.exeAdditional command line options : -V -8 -T "artist=%a" -T "title=%t" -T "album=%g" -T "date=%y" -T "tracknumber=%n" -T "genre=%m" %s

TOC of the extracted CD

Track | Start | Length | Start sector | End sector --------------------------------------------------------- 1 | 0:00.00 | 4:03.47 | 0 | 18271 2 | 4:03.47 | 4:38.20 | 18272 | 39141 3 | 8:41.67 | 3:43.68 | 39142 | 55934 4 | 12:25.60 | 4:42.57 | 55935 | 77141 5 | 17:08.42 | 3:32.33 | 77142 | 93074 6 | 20:41.00 | 3:13.00 | 93075 | 107549 7 | 23:54.00 | 4:42.42 | 107550 | 128741 8 | 28:36.42 | 4:44.33 | 128742 | 150074 9 | 33:21.00 | 4:10.35 | 150075 | 168859 10 | 37:31.35 | 4:02.12 | 168860 | 187021 11 | 41:33.47 | 4:23.10 | 187022 | 206756 12 | 45:56.57 | 3:58.65 | 206757 | 224671 13 | 49:55.47 | 3:36.60 | 224672 | 240931

Track 1

Filename I:\EAC Rips\Swingfield Big Band\Big Band Love Songs\01. Moonlight Serenade.wav

Pre-gap length 0:00:02.00

Peak level 97.7 % Extraction speed 4.3 X Track quality 100.0 % Test CRC B8227033 Copy CRC B8227033 Track not present in AccurateRip database Copy OK

Track 2

Filename I:\EAC Rips\Swingfield Big Band\Big Band Love Songs\02. I'll Be Seeing You.wav

Pre-gap length 0:00:03.56

Peak level 98.8 % Extraction speed 4.0 X Track quality 99.9 % Test CRC C23B23E9 Copy CRC C23B23E9 Track not present in AccurateRip database Copy OK

Track 3

Filename I:\EAC Rips\Swingfield Big Band\Big Band Love Songs\03. Someday My Prince Will Come.wav

Pre-gap length 0:00:03.56

Peak level 87.7 % Extraction speed 5.1 X Track quality 100.0 % Test CRC BB5A5173 Copy CRC BB5A5173 Track not present in AccurateRip database Copy OK

Track 4

Filename I:\EAC Rips\Swingfield Big Band\Big Band Love Songs\04. Over the Rainbow.wav

Pre-gap length 0:00:02.57

Peak level 96.6 % Extraction speed 5.5 X Track quality 100.0 % Test CRC 5D8658C0 Copy CRC 5D8658C0 Track not present in AccurateRip database Copy OK

Track 5

Filename I:\EAC Rips\Swingfield Big Band\Big Band Love Songs\05. Moon River.wav

Pre-gap length 0:00:03.56

Peak level 93.4 % Extraction speed 5.8 X Track quality 100.0 % Test CRC 0C0AEF22 Copy CRC 0C0AEF22 Track not present in AccurateRip database Copy OK

Track 6

Filename I:\EAC Rips\Swingfield Big Band\Big Band Love Songs\06. Blue Moon.wav

Pre-gap length 0:00:02.40

Peak level 89.0 % Extraction speed 6.0 X Track quality 100.0 % Test CRC 5E330F92 Copy CRC 5E330F92 Track not present in AccurateRip database Copy OK

Track 7

Filename I:\EAC Rips\Swingfield Big Band\Big Band Love Songs\07. Smoke Gets in Your Eyes.wav

Pre-gap length 0:00:02.24

Peak level 86.8 % Extraction speed 5.3 X Track quality 99.9 % Test CRC 6A45B8BD Copy CRC 6A45B8BD Track not present in AccurateRip database Copy OK

Track 8

Filename I:\EAC Rips\Swingfield Big Band\Big Band Love Songs\08. In a Sentimental Mood.wav

Pre-gap length 0:00:02.56

Peak level 86.1 % Extraction speed 6.4 X Track quality 100.0 % Test CRC 0C7FD1E5 Copy CRC 0C7FD1E5 Track not present in AccurateRip database Copy OK

Track 9

Filename I:\EAC Rips\Swingfield Big Band\Big Band Love Songs\09. Sentimental Journey.wav

Pre-gap length 0:00:02.57

Peak level 91.6 % Extraction speed 7.2 X Track quality 100.0 % Test CRC B32B9B73 Copy CRC B32B9B73 Track not present in AccurateRip database Copy OK

Track 10

Filename I:\EAC Rips\Swingfield Big Band\Big Band Love Songs\10. As Time Goes By.wav

Pre-gap length 0:00:04.06

Peak level 92.9 % Extraction speed 7.5 X Track quality 100.0 % Test CRC 9E3651BA Copy CRC 9E3651BA Track not present in AccurateRip database Copy OK

Track 11

Filename I:\EAC Rips\Swingfield Big Band\Big Band Love Songs\11. When You Wish Upon a Star.wav

Pre-gap length 0:00:02.56

Peak level 93.8 % Extraction speed 7.8 X Track quality 100.0 % Test CRC 536CB339 Copy CRC 536CB339 Track not present in AccurateRip database Copy OK

Track 12

Filename I:\EAC Rips\Swingfield Big Band\Big Band Love Songs\12. I'll Never Smile Again.wav

Pre-gap length 0:00:02.56

Peak level 89.5 % Extraction speed 7.5 X Track quality 100.0 % Test CRC 1088FC47 Copy CRC 1088FC47 Track not present in AccurateRip database Copy OK

Track 13

Filename I:\EAC Rips\Swingfield Big Band\Big Band Love Songs\13. Thanks for the Memory.wav

Pre-gap length 0:00:02.56

Peak level 93.4 % Extraction speed 7.8 X Track quality 100.0 % Test CRC DBFCEB89 Copy CRC DBFCEB89 Track not present in AccurateRip database Copy OK

None of the tracks are present in the AccurateRip database

No errors occurred

End of status report

==== Log checksum 3A24751E097644228373FA9AEA403B5BA7C316F3CBA3FA1B3BAE5F8449991D42 ====
 
REM GENRE "Big Band"REM DISCID AC0C8C0DREM COMMENT "ExactAudioCopy v1.0b1"PERFORMER "Swingfield Big Band"TITLE "Big Band Love Songs"FILE "01. Moonlight Serenade.wav" WAVE TRACK 01 AUDIO TITLE "Moonlight Serenade" PERFORMER "Swingfield Big Band" INDEX 01 00:00:00 TRACK 02 AUDIO TITLE "I'll Be Seeing You" PERFORMER "Swingfield Big Band" INDEX 00 04:00:05FILE "02. I'll Be Seeing You.wav" WAVE INDEX 01 00:00:00 TRACK 03 AUDIO TITLE "Someday My Prince Will Come" PERFORMER "Swingfield Big Band" INDEX 00 04:34:53FILE "03. Someday My Prince Will Come.wav" WAVE INDEX 01 00:00:00 TRACK 04 AUDIO TITLE "Over the Rainbow" PERFORMER "Swingfield Big Band" INDEX 00 03:41:25FILE "04. Over the Rainbow.wav" WAVE INDEX 01 00:00:00 TRACK 05 AUDIO TITLE "Moon River" PERFORMER "Swingfield Big Band" INDEX 00 04:39:15FILE "05. Moon River.wav" WAVE INDEX 01 00:00:00 TRACK 06 AUDIO TITLE "Blue Moon" PERFORMER "Swingfield Big Band" INDEX 00 03:30:03FILE "06. Blue Moon.wav" WAVE INDEX 01 00:00:00 TRACK 07 AUDIO TITLE "Smoke Gets in Your Eyes" PERFORMER "Swingfield Big Band" INDEX 00 03:10:57FILE "07. Smoke Gets in Your Eyes.wav" WAVE INDEX 01 00:00:00 TRACK 08 AUDIO TITLE "In a Sentimental Mood" PERFORMER "Swingfield Big Band" INDEX 00 04:40:00FILE "08. In a Sentimental Mood.wav" WAVE INDEX 01 00:00:00 TRACK 09 AUDIO TITLE "Sentimental Journey" PERFORMER "Swingfield Big Band" INDEX 00 04:41:65FILE "09. Sentimental Journey.wav" WAVE INDEX 01 00:00:00 TRACK 10 AUDIO TITLE "As Time Goes By" PERFORMER "Swingfield Big Band" INDEX 00 04:06:30FILE "10. As Time Goes By.wav" WAVE INDEX 01 00:00:00 TRACK 11 AUDIO TITLE "When You Wish Upon a Star" PERFORMER "Swingfield Big Band" INDEX 00 03:59:45FILE "11. When You Wish Upon a Star.wav" WAVE INDEX 01 00:00:00 TRACK 12 AUDIO TITLE "I'll Never Smile Again" PERFORMER "Swingfield Big Band" INDEX 00 04:20:43FILE "12. I'll Never Smile Again.wav" WAVE INDEX 01 00:00:00 TRACK 13 AUDIO TITLE "Thanks for the Memory" PERFORMER "Swingfield Big Band" INDEX 00 03:56:23FILE "13. Thanks for the Memory.wav" WAVE INDEX 01 00:00:00
-----------------------

DON'T MODIFY THIS FILE

-----------------------

PERFORMER: auCDtect Task Manager, ver. 1.5.1RC6 build 1.5.1.7
Copyright (c) 2008-2010 y-soft. All rights reserved
http://y-soft.org

ANALYZER: auCDtect: CD records authenticity detector, version 0.8.2
Copyright (c) 2004 Oleg Berngardt. All rights reserved.
Copyright (c) 2004 Alexander Djourik. All rights reserved.

FILE: 13. Thanks for the Memory.flac
Size: 21728535 Hash: B35E62BF73EE9D9E46955BCCE2AF909B Accuracy: -m0
Conclusion: CDDA 99%
Signature: 759C9E4F24E15AF730CF448C68246AEC2DD5CDFC
FILE: 12. I'll Never Smile Again.flac
Size: 21625202 Hash: 4D038A73330D28B4B83ED65CBAEDEE04 Accuracy: -m0
Conclusion: CDDA 100%
Signature: 4C5C83FCBA80428DC6303FD65701B90E8F9EF7B4
FILE: 11. When You Wish Upon a Star.flac
Size: 24891277 Hash: DC0DA8C02D2872F50BB7A0871772D442 Accuracy: -m0
Conclusion: CDDA 85%
Signature: 4A8ECFAEBB9BCCECFB127E4FB2B7F13EE6B68AC6
FILE: 10. As Time Goes By.flac
Size: 23557686 Hash: 3EDD5B611237839845E24DED743DCD7D Accuracy: -m0
Conclusion: CDDA 100%
Signature: C0E09D014EE78D538CD307AFBE923685EE0AD3D2
FILE: 09. Sentimental Journey.flac
Size: 24321378 Hash: 976FA8FF9DA45AD7E5552B7488649D7D Accuracy: -m0
Conclusion: CDDA 100%
Signature: 335967707676A29329DC3AE36497ED86E0A6F326
FILE: 08. In a Sentimental Mood.flac
Size: 27136003 Hash: 803F77796CA13FB302E994BDD2A7B8D1 Accuracy: -m0
Conclusion: CDDA 100%
Signature: 9A36381D592069B42E693B24C86F4EEF1A9ED618
FILE: 07. Smoke Gets in Your Eyes.flac
Size: 25590941 Hash: BE65C0CA94E60EFE91A2A7AD585ABF25 Accuracy: -m0
Conclusion: CDDA 99%
Signature: 9ECE6F98A62D6D6274B66662A1E5791FC0B2BB5F
FILE: 06. Blue Moon.flac
Size: 17801189 Hash: 68CFB89681B6A2C8F88BB59E6F8777F8 Accuracy: -m0
Conclusion: CDDA 100%
Signature: 1BD8946EA564F7C64BBFF35F3A233F0E1BBBDF14
FILE: 05. Moon River.flac
Size: 20195113 Hash: 4CFA20F9D82F87FD8AD162F5740D70BC Accuracy: -m0
Conclusion: CDDA 100%
Signature: 3122300B44EA39857C5B3F48D3DE514625CD449F
FILE: 04. Over the Rainbow.flac
Size: 27593411 Hash: D7819A28CBE95A7A62DC4A6D145D4926 Accuracy: -m0
Conclusion: CDDA 100%
Signature: FA0DCC4B31AE1B263ACAA7C9C3B65A376859CBDE
FILE: 03. Someday My Prince Will Come.flac
Size: 23134324 Hash: D189B344C0851500E41102F5309B222E Accuracy: -m0
Conclusion: CDDA 99%
Signature: 782FE9D4D381C79ADDE1F5820C5649D8D0D9663C
FILE: 02. I'll Be Seeing You.flac
Size: 27901576 Hash: A83462C9B0D533DB3C979123BCC64D96 Accuracy: -m0
Conclusion: CDDA 86%
Signature: 2CEF18FD7929755E194F6C07F1FDB01B881100B2
FILE: 01. Moonlight Serenade.flac
Size: 22528341 Hash: AB83588F4D7677A515CD442AD9DEAB78 Accuracy: -m0
Conclusion: CDDA 100%
Signature: 0E9E0FD685BCE058FA253C4F5E5073D9F3479E57


Трекер:  [ 17-Фев-2012 10:29 ]

  

Скачать .torrent

Размер .torrent файла 13 KB


Размер: 303 MB
Хэш (hash) релиза: 6fac2fe91557b943779b45c806c66628123049c6

Еще никто не оставлял запись к записи скачать торрент The Swingfield Big Band - Big Band Love Songs - 2001, FLAC . Будь первым!

!Обратная связь