Скачать через торрент музыку Clarence Williams - 1933 {The Chronological Classics, 845} - 1995, FLAC бесплатно без регистрации torrent

Если у вас наблюдаются проблемы со скриншотами, переходом по ссылками, скачиванием торрентов - проблемы в блокировщике рекламы AdBlock. #хорошегоДня!


Статистика раздачи
Размер:  219 MB   |    Зарегистрирован:  5 лет 8 месяцев   |    .torrent скачан:  28 раз   |   
Раздают:  1  
   
Загрузка...
 
Автор Сообщение

Umakiro

avatar Umakiro


Clarence Williams – 1933 {The Chronological Classics, 845}

Жанр: Dixieland, New Orleans Jazz
Год издания диска: 1995
Издатель (лейбл): Classics
Номер по каталогу: 845
Аудиокодек: FLAC (*.flac)
Тип рипа: tracks+.cue
Битрейт аудио: lossless
Продолжительность: 68:02
Источник: вата
Наличие сканов в содержимом раздачи: мелкие

Треклист:
01. Mississippi Basin (3:04)
02. I Like To Go Back In The Evening (2:33)
03. Black-Eyed Susan Brown (2:51)
04. Mama Stayed Out All Night Long (2:47)
05. High Society (2:41)
06. I Like To Go In The Evening (To That Old Sweetheart Of Mine) (2:45)
07. Shim Sham Simmy Dance (3:03)
08. Organ Grinder Blues (3:45)
09. Chizzlin' Sam (3:14)
10. High Society (2:56)
11. Mister, Will You Serenade? (3:12)
12. You Ain't Too Old (3:06)
13. Beer Garden Blues (2:52)
14. The Right Key But The Wrong Keyhole (2:39)
15. Dispossessin' Me (2:42)
16. Breeze (Blow My Baby Back To Me) (3:06)
17. She Just Got A Little Bit Left (3:01)
18. After Tonight (3:07)
19. Bimbo (2:56)
20. Chocolate Avenue (2:59)
21. Harlem Rhythm Dance (2:50)
22. 'Way Down Home (3:04)
23. For Sale (Hannah Johnson's Big Jack Ass) (2:48)
 
 
Exact Audio Copy V1.0 beta 3 from 29. August 2011

EAC extraction logfile from 17. December 2011, 23:34

Clarence Williams / 1933

Used drive : HL-DT-STDVDRAM GT20N Adapter: 2 ID: 0

Read mode : SecureUtilize accurate stream : YesDefeat audio cache : YesMake use of C2 pointers : No

Read offset correction : 667Overread into Lead-In and Lead-Out : NoFill up missing offset samples with silence : YesDelete leading and trailing silent blocks : NoNull samples used in CRC calculations : YesUsed interface : Native Win32 interface for Win NT & 2000Gap handling : Appended to previous track

Used output format : User Defined EncoderSelected bitrate : 1024 kBit/sQuality : HighAdd ID3 tag : NoCommand line compressor : C:\Program Files (x86)\Exact Audio Copy\Flac\flac.exeAdditional command line options : -8 -V -T "ARTIST=%artist%" -T "TITLE=%title%" -T "ALBUM=%albumtitle%" -T "DATE=%year%" -T "TRACKNUMBER=%tracknr%" -T "GENRE=%genre%" -T "PERFORMER=%albuminterpret%" -T "COMPOSER=%composer%" %haslyrics%--tag-from-file=LYRICS="%lyricsfile%"%haslyrics% -T "ALBUMARTIST=%albumartist%" -T "DISCNUMBER=%cdnumber%" -T "TOTALDISCS=%totalcds%" -T "TOTALTRACKS=%numtracks%" -T "COMMENT=%comment%" %source% -o %dest%

TOC of the extracted CD

Track | Start | Length | Start sector | End sector --------------------------------------------------------- 1 | 0:00.32 | 3:04.18 | 32 | 13849 2 | 3:04.50 | 2:33.07 | 13850 | 25331 3 | 5:37.57 | 2:51.18 | 25332 | 38174 4 | 8:29.00 | 2:47.15 | 38175 | 50714 5 | 11:16.15 | 2:40.50 | 50715 | 62764 6 | 13:56.65 | 2:44.47 | 62765 | 75111 7 | 16:41.37 | 3:02.55 | 75112 | 88816 8 | 19:44.17 | 3:44.55 | 88817 | 105671 9 | 23:28.72 | 3:14.08 | 105672 | 120229 10 | 26:43.05 | 2:56.17 | 120230 | 133446 11 | 29:39.22 | 3:11.73 | 133447 | 147844 12 | 32:51.20 | 3:05.60 | 147845 | 161779 13 | 35:57.05 | 2:52.00 | 161780 | 174679 14 | 38:49.05 | 2:39.32 | 174680 | 186636 15 | 41:28.37 | 2:41.50 | 186637 | 198761 16 | 44:10.12 | 3:06.35 | 198762 | 212746 17 | 47:16.47 | 3:01.30 | 212747 | 226351 18 | 50:18.02 | 3:07.10 | 226352 | 240386 19 | 53:25.12 | 2:56.00 | 240387 | 253586 20 | 56:21.12 | 2:58.45 | 253587 | 266981 21 | 59:19.57 | 2:49.70 | 266982 | 279726 22 | 62:09.52 | 3:03.70 | 279727 | 293521 23 | 65:13.47 | 2:48.23 | 293522 | 306144

Track 1

Filename E:\ClarenceWilliiams1933_845\01 - Mississippi Basin.wav

Pre-gap length 0:00:02.42

Peak level 75.9 % Extraction speed 1.5 X Track quality 99.9 % Test CRC 7BE3515C Copy CRC 7BE3515C Track not present in AccurateRip database Copy OK

Track 2

Filename E:\ClarenceWilliiams1933_845\02 - I Like To Go Back In The Evening.wav

Pre-gap length 0:00:01.00

Peak level 87.9 % Extraction speed 1.2 X Track quality 100.0 % Test CRC FCE182C8 Copy CRC FCE182C8 Track not present in AccurateRip database Copy OK

Track 3

Filename E:\ClarenceWilliiams1933_845\03 - Black-Eyed Susan Brown.wav

Pre-gap length 0:00:01.00

Peak level 65.7 % Extraction speed 1.3 X Track quality 100.0 % Test CRC 61736049 Copy CRC 61736049 Track not present in AccurateRip database Copy OK

Track 4

Filename E:\ClarenceWilliiams1933_845\04 - Mama Stayed Out All Night Long.wav

Pre-gap length 0:00:01.00

Peak level 73.4 % Extraction speed 1.3 X Track quality 100.0 % Test CRC CCABA35B Copy CRC CCABA35B Track not present in AccurateRip database Copy OK

Track 5

Filename E:\ClarenceWilliiams1933_845\05 - High Society.wav

Pre-gap length 0:00:01.00

Peak level 71.1 % Extraction speed 1.2 X Track quality 99.9 % Test CRC 9DDE3576 Copy CRC 9DDE3576 Track not present in AccurateRip database Copy OK

Track 6

Filename E:\ClarenceWilliiams1933_845\06 - I Like To Go In The Evening (To That Old Sweetheart Of Mine).wav

Pre-gap length 0:00:01.00

Peak level 77.0 % Extraction speed 1.5 X Track quality 100.0 % Test CRC 1C3F8E10 Copy CRC 1C3F8E10 Track not present in AccurateRip database Copy OK

Track 7

Filename E:\ClarenceWilliiams1933_845\07 - Shim Sham Simmy Dance.wav

Pre-gap length 0:00:01.00

Peak level 71.7 % Extraction speed 1.6 X Track quality 100.0 % Test CRC 1CBC8BCA Copy CRC 1CBC8BCA Track not present in AccurateRip database Copy OK

Track 8

Filename E:\ClarenceWilliiams1933_845\08 - Organ Grinder Blues.wav

Pre-gap length 0:00:01.00

Peak level 71.3 % Extraction speed 1.5 X Track quality 99.9 % Test CRC D16E69C4 Copy CRC D16E69C4 Track not present in AccurateRip database Copy OK

Track 9

Filename E:\ClarenceWilliiams1933_845\09 - Chizzlin' Sam.wav

Pre-gap length 0:00:01.00

Peak level 80.5 % Extraction speed 1.8 X Track quality 100.0 % Test CRC 2407565D Copy CRC 2407565D Track not present in AccurateRip database Copy OK

Track 10

Filename E:\ClarenceWilliiams1933_845\10 - High Society.wav

Pre-gap length 0:00:01.00

Peak level 80.5 % Extraction speed 1.8 X Track quality 100.0 % Test CRC A9A9159A Copy CRC A9A9159A Track not present in AccurateRip database Copy OK

Track 11

Filename E:\ClarenceWilliiams1933_845\11 - Mister, Will You Serenade.wav

Pre-gap length 0:00:01.00

Peak level 67.5 % Extraction speed 1.9 X Track quality 100.0 % Test CRC ED65991D Copy CRC ED65991D Track not present in AccurateRip database Copy OK

Track 12

Filename E:\ClarenceWilliiams1933_845\12 - You Ain't Too Old.wav

Pre-gap length 0:00:01.00

Peak level 83.2 % Extraction speed 1.9 X Track quality 100.0 % Test CRC 6394071E Copy CRC 6394071E Track not present in AccurateRip database Copy OK

Track 13

Filename E:\ClarenceWilliiams1933_845\13 - Beer Garden Blues.wav

Pre-gap length 0:00:01.00

Peak level 74.7 % Extraction speed 1.7 X Track quality 99.9 % Test CRC 1D1D3C1F Copy CRC 1D1D3C1F Track not present in AccurateRip database Copy OK

Track 14

Filename E:\ClarenceWilliiams1933_845\14 - The Right Key But The Wrong Keyhole.wav

Pre-gap length 0:00:01.00

Peak level 63.6 % Extraction speed 2.0 X Track quality 100.0 % Test CRC 23650C09 Copy CRC 23650C09 Track not present in AccurateRip database Copy OK

Track 15

Filename E:\ClarenceWilliiams1933_845\15 - Dispossessin' Me.wav

Pre-gap length 0:00:01.00

Peak level 54.2 % Extraction speed 1.7 X Track quality 99.9 % Test CRC 349CE1D1 Copy CRC 349CE1D1 Track not present in AccurateRip database Copy OK

Track 16

Filename E:\ClarenceWilliiams1933_845\16 - Breeze (Blow My Baby Back To Me).wav

Pre-gap length 0:00:01.00

Peak level 71.4 % Extraction speed 2.1 X Track quality 100.0 % Test CRC FC706A3C Copy CRC FC706A3C Track not present in AccurateRip database Copy OK

Track 17

Filename E:\ClarenceWilliiams1933_845\17 - She Just Got A Little Bit Left.wav

Pre-gap length 0:00:01.00

Peak level 82.9 % Extraction speed 2.2 X Track quality 100.0 % Test CRC 1D978CA2 Copy CRC 1D978CA2 Track not present in AccurateRip database Copy OK

Track 18

Filename E:\ClarenceWilliiams1933_845\18 - After Tonight.wav

Pre-gap length 0:00:01.00

Peak level 63.7 % Extraction speed 2.2 X Track quality 100.0 % Test CRC A828A453 Copy CRC A828A453 Track not present in AccurateRip database Copy OK

Track 19

Filename E:\ClarenceWilliiams1933_845\19 - Bimbo.wav

Pre-gap length 0:00:01.00

Peak level 61.9 % Extraction speed 2.3 X Track quality 100.0 % Test CRC 111E815B Copy CRC 111E815B Track not present in AccurateRip database Copy OK

Track 20

Filename E:\ClarenceWilliiams1933_845\20 - Chocolate Avenue.wav

Pre-gap length 0:00:01.00

Peak level 73.0 % Extraction speed 2.0 X Track quality 99.9 % Test CRC CB5BF77F Copy CRC CB5BF77F Track not present in AccurateRip database Copy OK

Track 21

Filename E:\ClarenceWilliiams1933_845\21 - Harlem Rhythm Dance.wav

Pre-gap length 0:00:01.00

Peak level 60.5 % Extraction speed 2.3 X Track quality 100.0 % Test CRC 68E0E898 Copy CRC 68E0E898 Track not present in AccurateRip database Copy OK

Track 22

Filename E:\ClarenceWilliiams1933_845\22 - 'Way Down Home.wav

Pre-gap length 0:00:01.00

Peak level 64.9 % Extraction speed 2.1 X Track quality 99.9 % Test CRC 5EA329CC Copy CRC 5EA329CC Track not present in AccurateRip database Copy OK

Track 23

Filename E:\ClarenceWilliiams1933_845\23 - For Sale (Hannah Johnson's Big Jack Ass).wav

Pre-gap length 0:00:01.00

Peak level 71.2 % Extraction speed 2.1 X Track quality 99.9 % Test CRC 2E62B5F8 Copy CRC 2E62B5F8 Track not present in AccurateRip database Copy OK

None of the tracks are present in the AccurateRip database

No errors occurred

End of status report

==== Log checksum A87B2653BDFB717DA16BCAEA0C188400F709107BFB31D0E1C7DB549799D42B12 ====
 
REM GENRE JazzREM DATE 1995REM DISCID 390FF117REM COMMENT "ExactAudioCopy v1.0b3"CATALOG 0000000000000PERFORMER "Clarence Williams"TITLE "1933 {Chronological Classics, 845}"FILE "01. Mississippi Basin.flac" WAVE TRACK 01 AUDIO TITLE "Mississippi Basin" PERFORMER "Clarence Williams" PREGAP 00:00:32 INDEX 01 00:00:00 TRACK 02 AUDIO TITLE "I Like To Go Back In The Evening" PERFORMER "Clarence Williams" INDEX 00 03:03:18FILE "02. I Like To Go Back In The Evening.flac" WAVE INDEX 01 00:00:00 TRACK 03 AUDIO TITLE "Black-Eyed Susan Brown" PERFORMER "Clarence Williams" INDEX 00 02:32:07FILE "03. Black-Eyed Susan Brown.flac" WAVE INDEX 01 00:00:00 TRACK 04 AUDIO TITLE "Mama Stayed Out All Night Long" PERFORMER "Clarence Williams" INDEX 00 02:50:18FILE "04. Mama Stayed Out All Night Long.flac" WAVE INDEX 01 00:00:00 TRACK 05 AUDIO TITLE "High Society" PERFORMER "Clarence Williams" INDEX 00 02:46:15FILE "05. High Society.flac" WAVE INDEX 01 00:00:00 TRACK 06 AUDIO TITLE "I Like To Go In The Evening (To That Old Sweetheart Of Mine)" PERFORMER "Clarence Williams" INDEX 00 02:39:50FILE "06. I Like To Go In The Evening (To That Old Sweetheart Of Mine).flac" WAVE INDEX 01 00:00:00 TRACK 07 AUDIO TITLE "Shim Sham Simmy Dance" PERFORMER "Clarence Williams" INDEX 00 02:43:47FILE "07. Shim Sham Simmy Dance.flac" WAVE INDEX 01 00:00:00 TRACK 08 AUDIO TITLE "Organ Grinder Blues" PERFORMER "Clarence Williams" INDEX 00 03:01:55FILE "08. Organ Grinder Blues.flac" WAVE INDEX 01 00:00:00 TRACK 09 AUDIO TITLE "Chizzlin' Sam" PERFORMER "Clarence Williams" INDEX 00 03:43:55FILE "09. Chizzlin' Sam.flac" WAVE INDEX 01 00:00:00 TRACK 10 AUDIO TITLE "High Society" PERFORMER "Clarence Williams" INDEX 00 03:13:08FILE "10. High Society.flac" WAVE INDEX 01 00:00:00 TRACK 11 AUDIO TITLE "Mister, Will You Serenade?" PERFORMER "Clarence Williams" INDEX 00 02:55:17FILE "11. Mister, Will You Serenade.flac" WAVE INDEX 01 00:00:00 TRACK 12 AUDIO TITLE "You Ain't Too Old" PERFORMER "Clarence Williams" INDEX 00 03:10:73FILE "12. You Ain't Too Old.flac" WAVE INDEX 01 00:00:00 TRACK 13 AUDIO TITLE "Beer Garden Blues" PERFORMER "Clarence Williams" INDEX 00 03:04:60FILE "13. Beer Garden Blues.flac" WAVE INDEX 01 00:00:00 TRACK 14 AUDIO TITLE "The Right Key But The Wrong Keyhole" PERFORMER "Clarence Williams" INDEX 00 02:51:00FILE "14. The Right Key But The Wrong Keyhole.flac" WAVE INDEX 01 00:00:00 TRACK 15 AUDIO TITLE "Dispossessin' Me" PERFORMER "Clarence Williams" INDEX 00 02:38:32FILE "15. Dispossessin' Me.flac" WAVE INDEX 01 00:00:00 TRACK 16 AUDIO TITLE "Breeze (Blow My Baby Back To Me)" PERFORMER "Clarence Williams" INDEX 00 02:40:50FILE "16. Breeze (Blow My Baby Back To Me).flac" WAVE INDEX 01 00:00:00 TRACK 17 AUDIO TITLE "She Just Got A Little Bit Left" PERFORMER "Clarence Williams" INDEX 00 03:05:35FILE "17. She Just Got A Little Bit Left.flac" WAVE INDEX 01 00:00:00 TRACK 18 AUDIO TITLE "After Tonight" PERFORMER "Clarence Williams" INDEX 00 03:00:30FILE "18. After Tonight.flac" WAVE INDEX 01 00:00:00 TRACK 19 AUDIO TITLE "Bimbo" PERFORMER "Clarence Williams" INDEX 00 03:06:10FILE "19. Bimbo.flac" WAVE INDEX 01 00:00:00 TRACK 20 AUDIO TITLE "Chocolate Avenue" PERFORMER "Clarence Williams" INDEX 00 02:55:00FILE "20. Chocolate Avenue.flac" WAVE INDEX 01 00:00:00 TRACK 21 AUDIO TITLE "Harlem Rhythm Dance" PERFORMER "Clarence Williams" INDEX 00 02:57:45FILE "21. Harlem Rhythm Dance.flac" WAVE INDEX 01 00:00:00 TRACK 22 AUDIO TITLE "'Way Down Home" PERFORMER "Clarence Williams" INDEX 00 02:48:70FILE "22. 'Way Down Home.flac" WAVE INDEX 01 00:00:00 TRACK 23 AUDIO TITLE "For Sale (Hannah Johnson's Big Jack Ass)" PERFORMER "Clarence Williams" INDEX 00 03:02:70FILE "23. For Sale (Hannah Johnson's Big Jack Ass).flac" WAVE INDEX 01 00:00:00


Трекер:  [ 17-Фев-2012 10:29 ]

  

Скачать .torrent

Размер .torrent файла 19 KB


Размер: 219 MB
Хэш (hash) релиза: 72858e1f9d7c790d461c69fb3e4cdb0748c2fbb2

Еще никто не оставлял запись к записи скачать торрент Clarence Williams - 1933 {The Chronological Classics, 845} - 1995, FLAC . Будь первым!

!Обратная связь