Скачать через торрент музыку Clarence Williams - 1934 {The Chronological Classics, 891} - 1996, FLAC бесплатно без регистрации torrent

Если у вас наблюдаются проблемы со скриншотами, переходом по ссылками, скачиванием торрентов - проблемы в блокировщике рекламы AdBlock. #хорошегоДня!


Статистика раздачи
Размер:  117 MB   |    Зарегистрирован:  5 лет 8 месяцев   |    .torrent скачан:  26 раз   |   
Раздают:  1  
   
Загрузка...
 
Автор Сообщение

Umakiro

avatar Umakiro


Clarence Williams – 1934 {The Chronological Classics, 891}

Жанр: Dixieland, New Orleans Jazz
Год издания диска: 1996
Издатель (лейбл): Classics
Номер по каталогу: 891
Аудиокодек: FLAC (*.flac)
Тип рипа: tracks+.cue
Битрейт аудио: lossless
Продолжительность: 51:53
Источник: вата
Наличие сканов в содержимом раздачи: мелкие

Треклист:
01. Jerry The Junker (Clarence Williams And His Orchestra) (3:09)
02. Organ Grinder Blues (Clarence Williams And His Orchestra) (3:11)
03. I'm Gettin' My Bonus In Love (Clarence Williams And His Orchestra) (2:46)
04. Chizzlin' Sam (Clarence Williams And His Orchestra) (2:55)
05. Big Fat Mama (Clarence Williams And His Orchestra) (2:49)
06. Ain't Gonna Give You None Of My Jelly Roll (Clarence Williams And His Orchestra) (2:35)
07. I Saw Stars (Clarence Williams And His Orchestra) (3:13)
08. Crazy Blues (Clarence Williams And His Orchestra) (2:27)
09. The Stuff Is Here And It's Mellow (Clarence Williams And His Orchestra) (2:37)
10. Rhapsody In Love (Clarence Williams And His Orchestra) (2:56)
11. 'Ida' Sweet As Apple Cider (Alabama Jug Band) (2:46)
12. My Gal Sal (Alabama Jug Band) (2:52)
13. Gulf Coast Blues (Alabama Jug Band) (3:09)
14. I Wish I Could Shimmy Like My Sister Kate (Alabama Jug Band) (2:41)
15. Jazz It Blues (Alabama Jug Band) (2:54)
16. Somebody Stole My Gal (Alabama Jug Band) (2:56)
17. Crazy Blues (Alabama Jug Band) (3:19)
18. Sugar Blues (Alabama Jug Band) (2:38)
 
 
Exact Audio Copy V1.0 beta 3 from 29. August 2011

EAC extraction logfile from 18. December 2011, 2:08

Clarence Williams / 1934

Used drive : HL-DT-STDVDRAM GT20N Adapter: 2 ID: 0

Read mode : SecureUtilize accurate stream : YesDefeat audio cache : YesMake use of C2 pointers : No

Read offset correction : 667Overread into Lead-In and Lead-Out : NoFill up missing offset samples with silence : YesDelete leading and trailing silent blocks : NoNull samples used in CRC calculations : YesUsed interface : Native Win32 interface for Win NT & 2000Gap handling : Appended to previous track

Used output format : User Defined EncoderSelected bitrate : 1024 kBit/sQuality : HighAdd ID3 tag : NoCommand line compressor : C:\Program Files (x86)\Exact Audio Copy\Flac\flac.exeAdditional command line options : -8 -V -T "ARTIST=%artist%" -T "TITLE=%title%" -T "ALBUM=%albumtitle%" -T "DATE=%year%" -T "TRACKNUMBER=%tracknr%" -T "GENRE=%genre%" -T "PERFORMER=%albuminterpret%" -T "COMPOSER=%composer%" %haslyrics%--tag-from-file=LYRICS="%lyricsfile%"%haslyrics% -T "ALBUMARTIST=%albumartist%" -T "DISCNUMBER=%cdnumber%" -T "TOTALDISCS=%totalcds%" -T "TOTALTRACKS=%numtracks%" -T "COMMENT=%comment%" %source% -o %dest%

TOC of the extracted CD

Track | Start | Length | Start sector | End sector --------------------------------------------------------- 1 | 0:00.32 | 3:08.40 | 32 | 14171 2 | 3:08.72 | 3:11.00 | 14172 | 28496 3 | 6:19.72 | 2:46.28 | 28497 | 40974 4 | 9:06.25 | 2:55.32 | 40975 | 54131 5 | 12:01.57 | 2:48.43 | 54132 | 66774 6 | 14:50.25 | 2:35.32 | 66775 | 78431 7 | 17:25.57 | 3:12.50 | 78432 | 92881 8 | 20:38.32 | 2:26.58 | 92882 | 103889 9 | 23:05.15 | 2:37.32 | 103890 | 115696 10 | 25:42.47 | 2:55.68 | 115697 | 128889 11 | 28:38.40 | 2:46.02 | 128890 | 141341 12 | 31:24.42 | 2:52.03 | 141342 | 154244 13 | 34:16.45 | 3:08.57 | 154245 | 168401 14 | 37:25.27 | 2:40.45 | 168402 | 180446 15 | 40:05.72 | 2:54.20 | 180447 | 193516 16 | 43:00.17 | 2:55.73 | 193517 | 206714 17 | 45:56.15 | 3:18.50 | 206715 | 221614 18 | 49:14.65 | 2:38.05 | 221615 | 233469

Track 1

Filename E:\ClarenceWilliiams1934_891\01 - Clarence Williams And His Orchestra - Jerry the Junker.wav

Pre-gap length 0:00:02.42

Peak level 86.4 % Extraction speed 1.5 X Track quality 99.9 % Test CRC D720E6D2 Copy CRC D720E6D2 Track not present in AccurateRip database Copy OK

Track 2

Filename E:\ClarenceWilliiams1934_891\02 - Clarence Williams And His Orchestra - Organ Grinder Blues.wav

Pre-gap length 0:00:01.26

Peak level 78.7 % Extraction speed 1.2 X Track quality 100.0 % Test CRC ECFD743D Copy CRC ECFD743D Track not present in AccurateRip database Copy OK

Track 3

Filename E:\ClarenceWilliiams1934_891\03 - Clarence Williams And His Orchestra - I'm Gettin' My Bonus In Love.wav

Pre-gap length 0:00:01.16

Peak level 73.5 % Extraction speed 1.3 X Track quality 100.0 % Test CRC BAC22B45 Copy CRC BAC22B45 Track not present in AccurateRip database Copy OK

Track 4

Filename E:\ClarenceWilliiams1934_891\04 - Clarence Williams And His Orchestra - Chizzlin' Sam.wav

Pre-gap length 0:00:01.46

Peak level 79.2 % Extraction speed 1.4 X Track quality 100.0 % Test CRC F353A0D2 Copy CRC F353A0D2 Track not present in AccurateRip database Copy OK

Track 5

Filename E:\ClarenceWilliiams1934_891\05 - Clarence Williams And His Orchestra - Big Fat Mama.wav

Pre-gap length 0:00:01.62

Peak level 67.2 % Extraction speed 1.4 X Track quality 100.0 % Test CRC E5C78D79 Copy CRC E5C78D79 Track not present in AccurateRip database Copy OK

Track 6

Filename E:\ClarenceWilliiams1934_891\06 - Clarence Williams And His Orchestra - Ain't Gonna Give You None Of My Jelly Roll.wav

Pre-gap length 0:00:01.24

Peak level 70.3 % Extraction speed 1.5 X Track quality 100.0 % Test CRC 0C3A667E Copy CRC 0C3A667E Track not present in AccurateRip database Copy OK

Track 7

Filename E:\ClarenceWilliiams1934_891\07 - Clarence Williams And His Orchestra - I Saw Stars.wav

Pre-gap length 0:00:01.00

Peak level 79.6 % Extraction speed 1.7 X Track quality 100.0 % Test CRC 877A996C Copy CRC 877A996C Track not present in AccurateRip database Copy OK

Track 8

Filename E:\ClarenceWilliiams1934_891\08 - Clarence Williams And His Orchestra - Crazy Blues.wav

Pre-gap length 0:00:01.26

Peak level 69.5 % Extraction speed 1.6 X Track quality 100.0 % Test CRC AA53CAA7 Copy CRC AA53CAA7 Track not present in AccurateRip database Copy OK

Track 9

Filename E:\ClarenceWilliiams1934_891\09 - Clarence Williams And His Orchestra - The Stuff Is Here And It's Mellow.wav

Pre-gap length 0:00:01.30

Peak level 74.6 % Extraction speed 1.7 X Track quality 100.0 % Test CRC 4A30EF65 Copy CRC 4A30EF65 Track not present in AccurateRip database Copy OK

Track 10

Filename E:\ClarenceWilliiams1934_891\10 - Clarence Williams And His Orchestra - Rhapsody In Love.wav

Pre-gap length 0:00:01.09

Peak level 65.3 % Extraction speed 1.8 X Track quality 100.0 % Test CRC 8B333BC5 Copy CRC 8B333BC5 Track not present in AccurateRip database Copy OK

Track 11

Filename E:\ClarenceWilliiams1934_891\11 - Alabama Jug Band - 'Ida' Sweet As Apple Cider.wav

Pre-gap length 0:00:00.77

Peak level 68.2 % Extraction speed 1.9 X Track quality 100.0 % Test CRC FAA05B79 Copy CRC FAA05B79 Track not present in AccurateRip database Copy OK

Track 12

Filename E:\ClarenceWilliiams1934_891\12 - Alabama Jug Band - My Gal Sal.wav

Pre-gap length 0:00:01.00

Peak level 73.0 % Extraction speed 1.9 X Track quality 100.0 % Test CRC 78A01ECC Copy CRC 78A01ECC Track not present in AccurateRip database Copy OK

Track 13

Filename E:\ClarenceWilliiams1934_891\13 - Alabama Jug Band - Gulf Coast Blues.wav

Pre-gap length 0:00:01.30

Peak level 82.5 % Extraction speed 2.0 X Track quality 100.0 % Test CRC 934F94E3 Copy CRC 934F94E3 Track not present in AccurateRip database Copy OK

Track 14

Filename E:\ClarenceWilliiams1934_891\14 - Alabama Jug Band - I Wish I Could Shimmy Like My Sister Kate.wav

Pre-gap length 0:00:02.00

Peak level 85.2 % Extraction speed 1.9 X Track quality 100.0 % Test CRC 717900B0 Copy CRC 717900B0 Track not present in AccurateRip database Copy OK

Track 15

Filename E:\ClarenceWilliiams1934_891\15 - Alabama Jug Band - Jazz It Blues.wav

Pre-gap length 0:00:01.66

Peak level 88.4 % Extraction speed 1.7 X Track quality 99.9 % Test CRC C68B5D0F Copy CRC C68B5D0F Track not present in AccurateRip database Copy OK

Track 16

Filename E:\ClarenceWilliiams1934_891\16 - Alabama Jug Band - Somebody Stole My Gal.wav

Pre-gap length 0:00:01.76

Peak level 74.3 % Extraction speed 1.8 X Track quality 99.9 % Test CRC 267726C5 Copy CRC 267726C5 Track not present in AccurateRip database Copy OK

Track 17

Filename E:\ClarenceWilliiams1934_891\17 - Alabama Jug Band - Crazy Blues.wav

Pre-gap length 0:00:01.90

Peak level 84.0 % Extraction speed 2.3 X Track quality 100.0 % Test CRC 8B8B7C2D Copy CRC 8B8B7C2D Track not present in AccurateRip database Copy OK

Track 18

Filename E:\ClarenceWilliiams1934_891\18 - Alabama Jug Band - Sugar Blues.wav

Pre-gap length 0:00:01.46

Peak level 73.1 % Extraction speed 1.8 X Track quality 99.9 % Test CRC 7FFB7F9F Copy CRC 7FFB7F9F Track not present in AccurateRip database Copy OK

None of the tracks are present in the AccurateRip database

No errors occurred

End of status report

==== Log checksum EE6E9A9F8C6B2B0B41F67496B27F5F2F9E0187DD8CBE0BA25B31CFEDCADD68D8 ====
 
REM GENRE JazzREM DATE 1996REM DISCID 060C2812REM COMMENT "ExactAudioCopy v1.0b3"CATALOG 0000000000000PERFORMER "Clarence Williams"TITLE "1934 {Chronological Classics, 891}"FILE "01. Jerry The Junker.flac" WAVE TRACK 01 AUDIO TITLE "Jerry The Junker" PERFORMER "Clarence Williams And His Orchestra" PREGAP 00:00:32 INDEX 01 00:00:00 TRACK 02 AUDIO TITLE "Organ Grinder Blues" PERFORMER "Clarence Williams And His Orchestra" INDEX 00 03:07:20FILE "02. Organ Grinder Blues.flac" WAVE INDEX 01 00:00:00 TRACK 03 AUDIO TITLE "I'm Gettin' My Bonus In Love" PERFORMER "Clarence Williams And His Orchestra" INDEX 00 03:09:63FILE "03. I'm Gettin' My Bonus In Love.flac" WAVE INDEX 01 00:00:00 TRACK 04 AUDIO TITLE "Chizzlin' Sam" PERFORMER "Clarence Williams And His Orchestra" INDEX 00 02:44:68FILE "04. Chizzlin' Sam.flac" WAVE INDEX 01 00:00:00 TRACK 05 AUDIO TITLE "Big Fat Mama" PERFORMER "Clarence Williams And His Orchestra" INDEX 00 02:53:60FILE "05. Big Fat Mama.flac" WAVE INDEX 01 00:00:00 TRACK 06 AUDIO TITLE "Ain't Gonna Give You None Of My Jelly Roll" PERFORMER "Clarence Williams And His Orchestra" INDEX 00 02:47:25FILE "06. Ain't Gonna Give You None Of My Jelly Roll.flac" WAVE INDEX 01 00:00:00 TRACK 07 AUDIO TITLE "I Saw Stars" PERFORMER "Clarence Williams And His Orchestra" INDEX 00 02:34:32FILE "07. I Saw Stars.flac" WAVE INDEX 01 00:00:00 TRACK 08 AUDIO TITLE "Crazy Blues" PERFORMER "Clarence Williams And His Orchestra" INDEX 00 03:11:30FILE "08. Crazy Blues.flac" WAVE INDEX 01 00:00:00 TRACK 09 AUDIO TITLE "The Stuff Is Here And It's Mellow" PERFORMER "Clarence Williams And His Orchestra" INDEX 00 02:25:35FILE "09. The Stuff Is Here And It's Mellow.flac" WAVE INDEX 01 00:00:00 TRACK 10 AUDIO TITLE "Rhapsody In Love" PERFORMER "Clarence Williams And His Orchestra" INDEX 00 02:36:25FILE "10. Rhapsody In Love.flac" WAVE INDEX 01 00:00:00 TRACK 11 AUDIO TITLE "'Ida' Sweet As Apple Cider" PERFORMER "Alabama Jug Band" INDEX 00 02:55:10FILE "11. 'Ida' Sweet As Apple Cider.flac" WAVE INDEX 01 00:00:00 TRACK 12 AUDIO TITLE "My Gal Sal" PERFORMER "Alabama Jug Band" INDEX 00 02:45:02FILE "12. My Gal Sal.flac" WAVE INDEX 01 00:00:00 TRACK 13 AUDIO TITLE "Gulf Coast Blues" PERFORMER "Alabama Jug Band" INDEX 00 02:50:55FILE "13. Gulf Coast Blues.flac" WAVE INDEX 01 00:00:00 TRACK 14 AUDIO TITLE "I Wish I Could Shimmy Like My Sister Kate" PERFORMER "Alabama Jug Band" INDEX 00 03:06:57FILE "14. I Wish I Could Shimmy Like My Sister Kate.flac" WAVE INDEX 01 00:00:00 TRACK 15 AUDIO TITLE "Jazz It Blues" PERFORMER "Alabama Jug Band" INDEX 00 02:38:70FILE "15. Jazz It Blues.flac" WAVE INDEX 01 00:00:00 TRACK 16 AUDIO TITLE "Somebody Stole My Gal" PERFORMER "Alabama Jug Band" INDEX 00 02:52:38FILE "16. Somebody Stole My Gal.flac" WAVE INDEX 01 00:00:00 TRACK 17 AUDIO TITLE "Crazy Blues" PERFORMER "Alabama Jug Band" INDEX 00 02:54:05FILE "17. Crazy Blues.flac" WAVE INDEX 01 00:00:00 TRACK 18 AUDIO TITLE "Sugar Blues" PERFORMER "Alabama Jug Band" INDEX 00 03:17:15FILE "18. Sugar Blues.flac" WAVE INDEX 01 00:00:00
 

Трекер:  [ 17-Фев-2012 10:29 ]

  

Скачать .torrent

Размер .torrent файла 20 KB


Размер: 117 MB
Хэш (hash) релиза: f6d1214d5f388c91c29eec757e8ea666e7369607

Еще никто не оставлял запись к записи скачать торрент Clarence Williams - 1934 {The Chronological Classics, 891} - 1996, FLAC . Будь первым!

!Обратная связь