Скачать через торрент музыку Johnny Gale - Gale Force - 1994, APE бесплатно без регистрации torrent

Если у вас наблюдаются проблемы со скриншотами, переходом по ссылками, скачиванием торрентов - проблемы в блокировщике рекламы AdBlock. #хорошегоДня!


Статистика раздачи
Размер:  297 MB   |    Зарегистрирован:  5 лет 8 месяцев   |    .torrent скачан:  33 раза   |   
Раздают:  1  
   
Загрузка...
 
Автор Сообщение

Umakiro

avatar Umakiro


Johnny Gale - Gale Force

Жанр: Blues/Rock
Год выпуска диска: 1994
Аудио кодек: APE
Тип рипа: image+.cue
Битрейт аудио: lossless
Продолжительность: 41:55
Трэклист:
01. Boom Boom [0:05:00.65]
02. I'm Cryin' [0:03:25.50]
03. Daddy Long Legs [0:06:31.43]
04. Workin' On You [0:03:15.05]
05. Cruel & Unsual Love [0:02:52.20]
06. I'm Tore Down [0:04:23.55]
07. Confused [0:04:00.62]
08. Pretty Girls Everywhere [0:04:31.23]
09. Can't Slow Down [0:04:32.07]
10. Custom Made [0:03:20.68]
Exact Audio Copy V0.99 prebeta 4 from 23. January 2008

Отчёт EAC об извлечении, выполненном 26. апреля 2009, 20:21

Johnny Gale / Gale Force

Дисковод: PLEXTOR DVDR PX-820A Adapter: 0 ID: 1

Режим чтения : Достоверность
Использование точного потока : Да
Отключение кэша аудио : Да
Использование указателей C2 : Нет

Коррекция смещения при чтении : 48
Способность читать области Lead-in и Lead-out : Нет
Заполнение пропущенных сэмплов тишиной : Да
Удаление блоков с тишиной в начале и конце : Нет
При вычислениях CRC использовались нулевые сэмплы : Да
Интерфейс : Встроенный Win32-интерфейс для Win NT/2000

Выходной формат : Внутренние WAV-операции
Формат сэмплов : 44.100 Гц; 16 бит; стерео

TOC извлечённого CD

Трек | Старт | Длительность | Начальный сектор | Конечный сектор
---------------------------------------------------------------------
1 | 0:00.32 | 5:00.65 | 32 | 22596
2 | 5:01.22 | 3:25.50 | 22597 | 38021
3 | 8:26.72 | 6:31.43 | 38022 | 67389
4 | 14:58.40 | 3:15.05 | 67390 | 82019
5 | 18:13.45 | 2:52.20 | 82020 | 94939
6 | 21:05.65 | 4:23.55 | 94940 | 114719
7 | 25:29.45 | 4:00.62 | 114720 | 132781
8 | 29:30.32 | 4:31.23 | 132782 | 153129
9 | 34:01.55 | 4:32.07 | 153130 | 173536
10 | 38:33.62 | 3:20.68 | 173537 | 188604

Характеристики диапазона извлечения и сообщения об ошибках

Выбранный диапазон

Имя файла D:\Муз раздача 3\Johnny Gale\Johnny Gale - Gale Force.wav

Пиковый уровень 97.0 %
Качество диапазона 99.9 %
CRC копии 0806D73B
Копирование... OK

Ошибок не произошло

Конец отчёта
Рип свой

Трекер:  [ 16-Фев-2012 19:47 ]

  

Скачать .torrent

Размер .torrent файла 24 KB


Размер: 297 MB
Хэш (hash) релиза: ca3c6bd04d0617a28c5a7df3040ae4f121f24878

Еще никто не оставлял запись к записи скачать торрент Johnny Gale - Gale Force - 1994, APE . Будь первым!

!Обратная связь