Скачать через торрент музыку Parkers Alibi - Beer Goggles бесплатно без регистрации torrent

Если у вас наблюдаются проблемы со скриншотами, переходом по ссылками, скачиванием торрентов - проблемы в блокировщике рекламы AdBlock. #хорошегоДня!


Статистика раздачи
Размер:  145 MB   |    Зарегистрирован:  5 лет 8 месяцев   |    .torrent скачан:  35 раз   |   
Раздают:  1  
   
Загрузка...
 
Автор Сообщение

Umakiro

avatar Umakiro


Parker's Alibi / Beer Goggles [EP]

Жанр: Blues-rock
Год издания диска: 1999
Издатель (лейбл): Nightmare
Номер по каталогу: MT003
Аудиокодек: FLAC (*.flac)
Тип рипа: tracks+.cue
Битрейт аудио: lossless
Продолжительность: 23:47
Источник (релизер): Источник - Вата, релизер - yourservice
Наличие сканов в содержимом раздачи: да
Треклист:
1. No Cuttin' Loose
2. I Hope The Blues Will Take Me Back
3. One Of Those Nights
4. Double Trouble
5. Beer Goggles
 
Exact Audio Copy V1.0 beta 1 from 15. November 2010

EAC extraction logfile from 19. July 2011, 22:58

Parker's Alibi / Beer Goggles EP

Used drive : LITE-ON DVDRW LH-20A1P Adapter: 0 ID: 0

Read mode : SecureUtilize accurate stream : YesDefeat audio cache : YesMake use of C2 pointers : No

Read offset correction : 6Overread into Lead-In and Lead-Out : NoFill up missing offset samples with silence : YesDelete leading and trailing silent blocks : NoNull samples used in CRC calculations : YesUsed interface : Native Win32 interface for Win NT & 2000Gap handling : Appended to previous track

Used output format : User Defined EncoderSelected bitrate : 320 kBit/sQuality : HighAdd ID3 tag : NoCommand line compressor : C:\Program Files (x86)\Exact Audio Copy\Flac\flac.exeAdditional command line options : -V -8 -T "artist=%a" -T "title=%t" -T "album=%g" -T "date=%y" -T "tracknumber=%n" -T "genre=%m" %s

TOC of the extracted CD

Track | Start | Length | Start sector | End sector --------------------------------------------------------- 1 | 0:00.00 | 3:05.36 | 0 | 13910 2 | 3:05.36 | 3:21.54 | 13911 | 29039 3 | 6:27.15 | 4:33.69 | 29040 | 49583 4 | 11:01.09 | 7:36.73 | 49584 | 83856 5 | 18:38.07 | 5:09.26 | 83857 | 107057

Track 1

Filename D:\Omzetten\Parker's Alibi - Beer Goggles EP 1999 Flac\01 No Cuttin' Loose.wav

Pre-gap length 0:00:02.00

Peak level 95.8 % Extraction speed 1.7 X Track quality 100.0 % Test CRC ADBDE38B Copy CRC ADBDE38B Track not present in AccurateRip database Copy OK

Track 2

Filename D:\Omzetten\Parker's Alibi - Beer Goggles EP 1999 Flac\02 I Hope The Blues Will Take Me Back.wav

Peak level 100.0 % Extraction speed 1.9 X Track quality 100.0 % Test CRC 0183EFFD Copy CRC 0183EFFD Track not present in AccurateRip database Copy OK

Track 3

Filename D:\Omzetten\Parker's Alibi - Beer Goggles EP 1999 Flac\03 One Of Those Nights.wav

Peak level 100.0 % Extraction speed 1.9 X Track quality 99.9 % Test CRC C87A168B Copy CRC C87A168B Track not present in AccurateRip database Copy OK

Track 4

Filename D:\Omzetten\Parker's Alibi - Beer Goggles EP 1999 Flac\04 Double Trouble.wav

Peak level 93.8 % Extraction speed 2.5 X Track quality 100.0 % Test CRC 0E338F43 Copy CRC 0E338F43 Track not present in AccurateRip database Copy OK

Track 5

Filename D:\Omzetten\Parker's Alibi - Beer Goggles EP 1999 Flac\05 Beer Goggles.wav

Peak level 100.0 % Extraction speed 2.7 X Track quality 100.0 % Test CRC E5F42918 Copy CRC E5F42918 Track not present in AccurateRip database Copy OK

None of the tracks are present in the AccurateRip database

No errors occurred

End of status report

==== Log checksum 93853319E2788761C9E6AD4EDF35BE96B859EC17B9F17CC4F782115ED3C1330A ====
 
REM GENRE BluesREM DATE 1999REM DISCID 39059305REM COMMENT "ExactAudioCopy v1.0b1"FILE "01 No Cuttin' Loose.wav" WAVE TRACK 01 AUDIO INDEX 01 00:00:00FILE "02 I Hope The Blues Will Take Me Back.wav" WAVE TRACK 02 AUDIO INDEX 01 00:00:00FILE "03 One Of Those Nights.wav" WAVE TRACK 03 AUDIO INDEX 01 00:00:00FILE "04 Double Trouble.wav" WAVE TRACK 04 AUDIO INDEX 01 00:00:00FILE "05 Beer Goggles.wav" WAVE TRACK 05 AUDIO INDEX 01 00:00:00
 
AUDIOCHECKER v2.0 beta (build 457) - by Dester - opdester@freemail.hu~~~~~~~~~~~~~~~~~~~~~~~~~~~~~~~~~~-=== DO NOT EDIT THIS FILE! ===-

Path: ...\Parker's Alibi - Beer Goggles (EP)

1 -=- 01 No Cuttin' Loose.flac -=- CDDA (100%)2 -=- 02 I Hope The Blues Will Take Me Back.flac -=- CDDA (100%)3 -=- 03 One Of Those Nights.flac -=- CDDA (100%)4 -=- 04 Double Trouble.flac -=- CDDA (100%)5 -=- 05 Beer Goggles.flac -=- CDDA (100%)

Summary 100,00% CDDA

30635188


Трекер:  [ 16-Фев-2012 19:46 ]

  

Скачать .torrent

Размер .torrent файла 12 KB


Размер: 145 MB
Хэш (hash) релиза: fc51586937d1a6cecb94544bd8efd8ada29ebe96

Еще никто не оставлял запись к записи скачать торрент Parkers Alibi - Beer Goggles . Будь первым!

!Обратная связь