Скачать через торрент музыку Too Slim And The Taildraggers - King Size Troublemakers - 2000, FLAC бесплатно без регистрации torrent

Если у вас наблюдаются проблемы со скриншотами, переходом по ссылками, скачиванием торрентов - проблемы в блокировщике рекламы AdBlock. #хорошегоДня!


Статистика раздачи
Размер:  541 MB   |    Зарегистрирован:  5 лет 8 месяцев   |    .torrent скачан:  30 раз   |   
Раздают:  1  
   
Загрузка...
 
Автор Сообщение

Umakiro

avatar Umakiro


Too Slim And The Taildraggers - King Size Troublemakers (2000)

Жанр: Blues, Blues-Rock, Modern Electric Blues
Страна-производитель диска: US
Год издания диска: 06.06.2000
Издатель (лейбл): Burnside Records
Номер по каталогу: BCD 0041-2
Страна: US
Аудиокодек: FLAC (*.flac)
Тип рипа: image+.cue
Битрейт аудио: lossless
Продолжительность: 00:54:58
Источник (релизер): DVG
Наличие сканов в содержимом раздачи: да

Треклист:

01. King Size Troublemaker (04:35)
02. Just Like I Am (04:04)
03. I'm Gonna Blow (05:13)
04. Potent 8 (05:56)
05. More Must Be Better (05:41)
06. Sam's Pit (01:46)
07. I've Been Down (04:30)
08. Feel So Good (02:29)
09. Big Barn Boogie (04:45)
10. I Get Real High (03:59)
11. Crowbar Hotel (05:09)
12. Rosado (06:45)
 
Exact Audio Copy V0.99 prebeta 5 from 4. May 2009

EAC extraction logfile from 31. January 2012, 18:42

Too Slim And The Taildraggers / King Size Troublemakers

Used drive : ASUS DRW-2014L1 Adapter: 0 ID: 1

Read mode : SecureUtilize accurate stream : YesDefeat audio cache : YesMake use of C2 pointers : No

Read offset correction : 6Overread into Lead-In and Lead-Out : NoFill up missing offset samples with silence : YesDelete leading and trailing silent blocks : NoNull samples used in CRC calculations : YesUsed interface : Native Win32 interface for Win NT & 2000

Used output format : User Defined EncoderSelected bitrate : 1024 kBit/sQuality : HighAdd ID3 tag : NoCommand line compressor : C:\Program Files\Exact Audio Copy\Flac\flac.exeAdditional command line options : -8 -V -T "artist=%a" -T "title=%t" -T "album=%g" -T "date=%y" -T "tracknumber=%n" -T "genre=%m" -T "comment=EAC FLAC -8" %s

TOC of the extracted CD

Track | Start | Length | Start sector | End sector --------------------------------------------------------- 1 | 0:00.00 | 4:36.70 | 0 | 20769 2 | 4:36.70 | 4:05.46 | 20770 | 39190 3 | 8:42.41 | 5:13.24 | 39191 | 62689 4 | 13:55.65 | 5:56.64 | 62690 | 89453 5 | 19:52.54 | 5:43.18 | 89454 | 115196 6 | 25:35.72 | 1:49.15 | 115197 | 123386 7 | 27:25.12 | 4:32.05 | 123387 | 143791 8 | 31:57.17 | 2:31.60 | 143792 | 155176 9 | 34:29.02 | 4:45.64 | 155177 | 176615 10 | 39:14.66 | 4:02.73 | 176616 | 194838 11 | 43:17.64 | 5:12.12 | 194839 | 218250 12 | 48:30.01 | 6:45.14 | 218251 | 248639

Range status and errors

Selected range

Filename E:\CD RIP\Too Slim And The Taildraggers - King Size Troublemakers (2000).wav

Peak level 99.7 % Range quality 100.0 % Test CRC B4E61C74 Copy CRC B4E61C74 Copy OK

No errors occurred

AccurateRip summary

Track 1 not present in databaseTrack 2 not present in databaseTrack 3 not present in databaseTrack 4 not present in databaseTrack 5 not present in databaseTrack 6 not present in databaseTrack 7 not present in databaseTrack 8 not present in databaseTrack 9 not present in databaseTrack 10 not present in databaseTrack 11 not present in databaseTrack 12 not present in database

None of the tracks are present in the AccurateRip database

End of status report
 
REM GENRE "Blues, Blues-Rock, Modern Electric Blues"REM DATE 2000REM DISCID B60CF30CREM COMMENT "ExactAudioCopy v0.99pb5"PERFORMER "Too Slim And The Taildraggers"TITLE "King Size Troublemakers"FILE "Too Slim And The Taildraggers - King Size Troublemakers (2000).flac" WAVE TRACK 01 AUDIO TITLE "King Size Troublemaker" PERFORMER "Too Slim And The Taildraggers" INDEX 01 00:00:00 TRACK 02 AUDIO TITLE "Just Like I Am" PERFORMER "Too Slim And The Taildraggers" INDEX 00 04:35:09 INDEX 01 04:36:70 TRACK 03 AUDIO TITLE "I'm Gonna Blow" PERFORMER "Too Slim And The Taildraggers" INDEX 00 08:41:46 INDEX 01 08:42:41 TRACK 04 AUDIO TITLE "Potent 8" PERFORMER "Too Slim And The Taildraggers" INDEX 00 13:55:41 INDEX 01 13:55:65 TRACK 05 AUDIO TITLE "More Must Be Better" PERFORMER "Too Slim And The Taildraggers" INDEX 00 19:51:71 INDEX 01 19:52:54 TRACK 06 AUDIO TITLE "Sam's Pit" PERFORMER "Too Slim And The Taildraggers" INDEX 00 25:34:39 INDEX 01 25:35:72 TRACK 07 AUDIO TITLE "I've Been Down" PERFORMER "Too Slim And The Taildraggers" INDEX 00 27:22:52 INDEX 01 27:25:12 TRACK 08 AUDIO TITLE "Feel So Good" PERFORMER "Too Slim And The Taildraggers" INDEX 00 31:56:03 INDEX 01 31:57:17 TRACK 09 AUDIO TITLE "Big Barn Boogie" PERFORMER "Too Slim And The Taildraggers" INDEX 00 34:27:12 INDEX 01 34:29:02 TRACK 10 AUDIO TITLE "I Get Real High" PERFORMER "Too Slim And The Taildraggers" INDEX 00 39:14:03 INDEX 01 39:14:66 TRACK 11 AUDIO TITLE "Crowbar Hotel" PERFORMER "Too Slim And The Taildraggers" INDEX 00 43:14:65 INDEX 01 43:17:64 TRACK 12 AUDIO TITLE "Rosado" PERFORMER "Too Slim And The Taildraggers" INDEX 00 48:27:51 INDEX 01 48:30:01
 
-----------------------

DON'T MODIFY THIS FILE

-----------------------

PERFORMER: auCDtect Task Manager, ver. 1.5.1RC6 build 1.5.1.7Copyright (c) 2008-2010 y-soft. All rights reservedhttp://y-soft.org

ANALYZER: auCDtect: CD records authenticity detector, version 0.8.2Copyright (c) 2004 Oleg Berngardt. All rights reserved.Copyright (c) 2004 Alexander Djourik. All rights reserved.

FILE: Too Slim And The Taildraggers - King Size Troublemakers (2000).flac Size: 388926231 Hash: ECD3D30FB06CD13DA3007E8A1E27B9CD Accuracy: -m0 Conclusion: CDDA 100% Signature: 9FD2737046120367B7AFDD3A1177944E8FEA062F
This is string-bending, guitar orientated, blues based rock & roll, with some hard-rocking northwestern attitude thrown in for spice. Too Slim keeps the pace from ever getting stagnant by changing it around all the time; he has arranged the songs well. He wrote all but 3 of the songs, and 2 of those 3 he co-wrote. He isn't going to win any prizes for his vocals, but they are more than adequate, and actually quite good on the rousing country stomper, Big Barn Boogie. There are no weak songs on this disc and for me the strongest song is the last cut Rosado. This is a laid back sleepy blues tune that puts me in mind of Santo and Johnny's Sleepwalk in the way it quietly and sinuously keeps pushing towards the finish. The Taildraggers are ably assisted by the addition of 3 sparkling guests to give that extra finish to the sound, Mark Hummel on harmonica, Sam "lightening" Hopkins - guitar and Dave Cebert on piano. This is a benchmark for the group.Allmusic, Review by Bob Gottlieb
Too Slim And The Taildraggers:
Tim "Too Slim" Langford - guitars, vocals
Tom "The Stomp" Brimm - bass
John "Midnight" Cage - drums, percussion

Special Guests:
Mark Hummel - harmonica
Sam "lightnin" Hopkins - guitar
Dave Cebert - piano

Credits:
Executive Producer - Terry Currier
Producers - Dave Cebert, Dan Black, Too Slim & the Taildraggers
Engineers - Dave Cebert, Steve Haldi, Joe Brasch
Mixed by - Dave Cebert
Masters of Tone - Dan Black, Too Slim
Recorded at - VU Music Studios, Spokane, WA, e-mail - vumusic@uswest.net
Photography - Dean Davis
Graphic Design - Blackburn Graphics with Special Thanks to Ricky Bartolus

Equipment Sponsors:
WL Core & Associates Inc, "REMO" Drums
Tim "Too Slim" Langford uses "ELIXER" ™
Guitar Strings & "LR BAGCS" Acoustic Guitar Pickups
lohn Cage uses "REMO MONDO" Drums & Heads & "ZILDJIAN" Cymbals


Трекер:  [ 16-Фев-2012 19:46 ]

  

Скачать .torrent

Размер .torrent файла 11 KB


Размер: 541 MB
Хэш (hash) релиза: 7118435c96bd1fe6ceb7438696253d3a7e5e5a0a

Еще никто не оставлял запись к записи скачать торрент Too Slim And The Taildraggers - King Size Troublemakers - 2000, FLAC . Будь первым!

!Обратная связь