Скачать через торрент музыку The Snowy White Blues Project - In Our Time Of Living - 2009, APE бесплатно без регистрации torrent

Если у вас наблюдаются проблемы со скриншотами, переходом по ссылками, скачиванием торрентов - проблемы в блокировщике рекламы AdBlock. #хорошегоДня!


Статистика раздачи
Размер:  332 MB   |    Зарегистрирован:  5 лет 8 месяцев   |    .torrent скачан:  33 раза   |   
Раздают:  1  
   
Загрузка...
 
Автор Сообщение

Umakiro

avatar Umakiro


The Snowy White Blues Project - In Our Time Of Living
Жанр: Blues, Blues Rock
Год выпуска диска: 2009
Аудио кодек: APE
Тип рипа: image+.cue
Битрейт аудио: lossless
Продолжительность: 50:37

Трэклист:
01. Rolling With My Baby (5:07)
02. Good Morning Blues (3:31)
03. Lonely Man Blues (3:00)
04. In Our Time Of Living (6:31)
05. Blue To The Bone (3:04)
06. Red Wine Blues (3:05)
07. I Ain't No Doctor (3:36)
08. I Still See You (4:25)
09. Hot For The Money (3:15)
10. Im So Glad (3:26)
11. One Way Ticket (4:04)
12. Simple (3:59)
13. I Want To Thank You (3:29)
 
Exact Audio Copy V0.99 prebeta 4 from 23. January 2008

Отчёт EAC об извлечении, выполненном 21. мая 2009, 18:42

Snowy White Blues Project / In Our Time Of Living

Дисковод: ASUS DRW-20B1LT Adapter: 2 ID: 0

Режим чтения : ДостоверностьИспользование точного потока : ДаОтключение кэша аудио : ДаИспользование указателей C2 : Нет

Коррекция смещения при чтении : 6Способность читать области Lead-in и Lead-out : НетЗаполнение пропущенных сэмплов тишиной : ДаУдаление блоков с тишиной в начале и конце : НетПри вычислениях CRC использовались нулевые сэмплы : ДаИнтерфейс : Встроенный Win32-интерфейс для Win NT/2000

Выходной формат : Внутренние WAV-операцииФормат сэмплов : 44.100 Гц; 16 бит; стерео

TOC извлечённого CD

Трек | Старт | Длительность | Начальный сектор | Конечный сектор --------------------------------------------------------------------- 1 | 0:00.00 | 5:07.55 | 0 | 23079 2 | 5:07.55 | 3:31.39 | 23080 | 38943 3 | 8:39.19 | 3:00.21 | 38944 | 52464 4 | 11:39.40 | 6:31.66 | 52465 | 81855 5 | 18:11.31 | 3:04.07 | 81856 | 95662 6 | 21:15.38 | 3:05.55 | 95663 | 109592 7 | 24:21.18 | 3:36.03 | 109593 | 125795 8 | 27:57.21 | 4:25.26 | 125796 | 145696 9 | 32:22.47 | 3:15.54 | 145697 | 160375 10 | 35:38.26 | 3:26.62 | 160376 | 175887 11 | 39:05.13 | 4:04.37 | 175888 | 194224 12 | 43:09.50 | 3:59.59 | 194225 | 212208 13 | 47:09.34 | 3:29.41 | 212209 | 227924

Характеристики диапазона извлечения и сообщения об ошибках

Выбранный диапазон

Имя файла D:\Lossless\The Snowy White Blues Project - In Our Time Of Living\Snowy White Blues Project - In Our Time Of Living.wav

Пиковый уровень 99.9 % Качество диапазона 100.0 % CRC копии 9C21CB57 Копирование... OK

Ошибок не произошло

Конец отчёта

Диск из личной коллекции

Трекер:  [ 16-Фев-2012 19:45 ]

  

Скачать .torrent

Размер .torrent файла 14 KB


Размер: 332 MB
Хэш (hash) релиза: e314da681a96891df75bff7af39f093a1b1b70ad

Еще никто не оставлял запись к записи скачать торрент The Snowy White Blues Project - In Our Time Of Living - 2009, APE . Будь первым!

!Обратная связь