Скачать через торрент музыку Wild T And The Spirit - Givin Blood - 1993, FLAC бесплатно без регистрации torrent

Если у вас наблюдаются проблемы со скриншотами, переходом по ссылками, скачиванием торрентов - проблемы в блокировщике рекламы AdBlock. #хорошегоДня!


Статистика раздачи
Размер:  305 MB   |    Зарегистрирован:  5 лет 8 месяцев   |    .torrent скачан:  38 раз   |   
Раздают:  1  
   
Загрузка...
 
Автор Сообщение

Umakiro

avatar Umakiro


Wild ''T'' And The Spirit - Givin' Blood

Жанр: blues-rock
Год выпуска диска: 1993
Производитель диска: Warner Music Canada WEA CD 93522
Аудио кодек: FLAC, tracks+.cue, lossless
Продолжительность: 41'07''

1. I'm a River [4:42]
2. Freedom Train [3:53]
3. Every-Thang [4:27]
4. I've Got the Rhythm... [3:17]
5. Loveland [4:48]
6. Talk Dirty [4:19]
7. Wild Frontier [3:36]
8. Telephone Freak [4:44]
9. It Ain't Where Yore From... [3:06]
10. Lovesick Woman [4:12]

Tony "Wild T" Springer - Guitar & Vocals
Danny Bilan - Drums
Nazeem Lakay - Bass

Source: Waffles -- Author: BobtheNailer
Exact Audio Copy V0.99 prebeta 5 from 4. May 2009

EAC extraction logfile from 6. October 2009, 0:10

Wild 'T' And The Spirit / Givin' Blood

Used drive : HL-DT-STDVDRRW GSA-H20L Adapter: 3 ID: 0

Read mode : Secure
Utilize accurate stream : Yes
Defeat audio cache : Yes
Make use of C2 pointers : No

Read offset correction : 102
Overread into Lead-In and Lead-Out : No
Fill up missing offset samples with silence : Yes
Delete leading and trailing silent blocks : No
Null samples used in CRC calculations : Yes
Used interface : Native Win32 interface for Win NT & 2000
Gap handling : Appended to previous track

Used output format : User Defined Encoder
Selected bitrate : 768 kBit/s
Quality : High
Add ID3 tag : No
Command line compressor : C:\Program Files\Exact Audio Copy\FLAC\FLAC.EXE
Additional command line options : -6 -V -T "ARTIST=%a" -T "TITLE=%t" -T "ALBUM=%g" -T "DATE=%y" -T "TRACKNUMBER=%n" -T "GENRE=%m" -T "COMMENT=%e" %s -o %d

TOC of the extracted CD

Track | Start | Length | Start sector | End sector
---------------------------------------------------------
1 | 0:00.00 | 4:43.12 | 0 | 21236
2 | 4:43.12 | 3:53.43 | 21237 | 38754
3 | 8:36.55 | 4:27.72 | 38755 | 58851
4 | 13:04.52 | 3:18.50 | 58852 | 73751
5 | 16:23.27 | 4:48.70 | 73752 | 95421
6 | 21:12.22 | 4:19.33 | 95422 | 114879
7 | 25:31.55 | 3:36.72 | 114880 | 131151
8 | 29:08.52 | 4:44.63 | 131152 | 152514
9 | 33:53.40 | 3:06.72 | 152515 | 166536
10 | 37:00.37 | 4:13.65 | 166537 | 185576

Track 1

Filename L:\ripped\01. I'm A River.wav

Pre-gap length 0:00:02.00

Peak level 99.1 %
Track quality 100.0 %
Test CRC 5A207887
Copy CRC 5A207887
Cannot be verified as accurate (confidence 3) [9D539A4C], AccurateRip returned [E21CFD77]
Copy OK

Track 2

Filename L:\ripped\02. Freedom Train.wav

Peak level 100.0 %
Track quality 100.0 %
Test CRC D3738F6D
Copy CRC D3738F6D
Cannot be verified as accurate (confidence 3) [F2784DA5], AccurateRip returned [061E485A]
Copy OK

Track 3

Filename L:\ripped\03. Every-thang.wav

Peak level 100.0 %
Track quality 99.9 %
Test CRC 635A22D3
Copy CRC 635A22D3
Cannot be verified as accurate (confidence 3) [1D8BF232], AccurateRip returned [72F94DC3]
Copy OK

Track 4

Filename L:\ripped\04. I've Got The Rhythm ....wav

Peak level 100.0 %
Track quality 99.9 %
Test CRC C55CB9A9
Copy CRC C55CB9A9
Cannot be verified as accurate (confidence 3) [EE9337FE], AccurateRip returned [7FA9D2CA]
Copy OK

Track 5

Filename L:\ripped\05. Loveland.wav

Peak level 98.7 %
Track quality 100.0 %
Test CRC E3CDB1CD
Copy CRC E3CDB1CD
Cannot be verified as accurate (confidence 3) [B2A2E446], AccurateRip returned [3DE1FA6E]
Copy OK

Track 6

Filename L:\ripped\06. Talk Dirty.wav

Peak level 100.0 %
Track quality 100.0 %
Test CRC 982D36E0
Copy CRC 982D36E0
Cannot be verified as accurate (confidence 3) [D9A0E135], AccurateRip returned [41D8B63B]
Copy OK

Track 7

Filename L:\ripped\07. Wild Frontier.wav

Peak level 100.0 %
Track quality 100.0 %
Test CRC D76C12FD
Copy CRC D76C12FD
Cannot be verified as accurate (confidence 3) [84557FC5], AccurateRip returned [02F66A95]
Copy OK

Track 8

Filename L:\ripped\08. Telephone Freak.wav

Peak level 98.9 %
Track quality 100.0 %
Test CRC E07970F4
Copy CRC E07970F4
Cannot be verified as accurate (confidence 3) [17ACB442], AccurateRip returned [5442231E]
Copy OK

Track 9

Filename L:\ripped\09. It Ain't Where Yore From ....wav

Peak level 100.0 %
Track quality 99.9 %
Test CRC 419282BD
Copy CRC 419282BD
Cannot be verified as accurate (confidence 3) [6381AD48], AccurateRip returned [1E784AAF]
Copy OK

Track 10

Filename L:\ripped\10. Lovesick Woman.wav

Peak level 100.0 %
Track quality 100.0 %
Test CRC 16276EC8
Copy CRC 16276EC8
Cannot be verified as accurate (confidence 3) [FBDD8D49], AccurateRip returned [90824276]
Copy OK

No tracks could be verified as accurate
You may have a different pressing from the one(s) in the database

No errors occurred

End of status report
AUDIOCHECKER v2.0 beta (build 457) - by Dester - opdester@freemail.hu
~~~~~~~~~~~~~~~~~~~~~~~~~~~~~~~~~~
-=== DO NOT EDIT THIS FILE! ===-

Path: ...\Wild 'T' and the Spirit

01 -=- 01. I'm A River.flac -=- CDDA (100%)
02 -=- 02. Freedom Train.flac -=- CDDA (100%)
03 -=- 03. Every-thang.flac -=- CDDA (100%)
04 -=- 04. I've Got The Rhythm ....flac -=- CDDA (99%)
05 -=- 05. Loveland.flac -=- CDDA (100%)
06 -=- 06. Talk Dirty.flac -=- CDDA (100%)
07 -=- 07. Wild Frontier.flac -=- CDDA (100%)
08 -=- 08. Telephone Freak.flac -=- CDDA (99%)
09 -=- 09. It Ain't Where Yore From ....flac -=- CDDA (100%)
10 -=- 10. Lovesick Woman.flac -=- CDDA (100%)

Summary 99,80% CDDA

154268100


Трекер:  [ 16-Фев-2012 19:45 ]

  

Скачать .torrent

Размер .torrent файла 13 KB


Размер: 305 MB
Хэш (hash) релиза: 21daebf4160d31e8d9a235a2382e1d5dc2933bf0

Еще никто не оставлял запись к записи скачать торрент Wild T And The Spirit - Givin Blood - 1993, FLAC . Будь первым!

!Обратная связь