Скачать через торрент музыку Mike Zito - Today - 2008 бесплатно без регистрации torrent

Если у вас наблюдаются проблемы со скриншотами, переходом по ссылками, скачиванием торрентов - проблемы в блокировщике рекламы AdBlock. #хорошегоДня!


Статистика раздачи
Размер:  372 MB   |    Зарегистрирован:  5 лет 8 месяцев   |    .torrent скачан:  28 раз   |   
Раздают:  1  
   
Загрузка...
 
Автор Сообщение

Umakiro

avatar Umakiro


Mike Zito - Today

Жанр: Blues-Rock
Страна-производитель диска: USA
Год издания диска: 2008
Издатель (лейбл): Eclecto Groove Records
Номер по каталогу: EGR CD 503
Страна: USA
Аудио кодек: FLAC (*.flac)
Тип рипа: image+.cue
Битрейт аудио: lossless
Продолжительность: 00:57:30
Источник (релизер): dmitrych2
Наличие сканов в содержимом раздачи: да

Треклист:

01. Love Like This 04:47
02. Superman 03:32
03. Holding Out For Love 04:37
04. Little Red Corvette 03:56
05. Universe 07:01
06. Blinded 03:33
07. Slow It Down 04:50
08. Today 03:44
09. No Big City 04:16
10. Deep Down In Love 04:12
11. Dirty Things 04:08
12. Hollywood 03:22
13. Time To Go Home 05:26
 
Exact Audio Copy V1.0 beta 3 from 29. August 2011

Отчёт EAC об извлечении, выполненном 6. февраля 2012, 19:09

Mike Zito / Today

Дисковод: Optiarc DVD RW AD-7220A Adapter: 0 ID: 1

Режим чтения : ДостоверностьИспользование точного потока : ДаОтключение кэша аудио : ДаИспользование указателей C2 : Нет

Коррекция смещения при чтении : 6Способность читать области Lead-in и Lead-out : НетЗаполнение пропущенных сэмплов тишиной : ДаУдаление блоков с тишиной в начале и конце : НетПри вычислениях CRC использовались нулевые сэмплы : ДаИнтерфейс : Установленный внешний ASPI-интерфейс

Выходной формат : Пользовательский кодировщикВыбранный битрейт : 768 kBit/sКачество : ВысокийДобавление ID3-тега : НетУтилита сжатия : C:\Program Files\Exact Audio Copy\FLAC\FLAC.EXEДополнительные параметры : -8 -V -T "ARTIST=%artist%" -T "TITLE=%title%" -T "ALBUM=%albumtitle%" -T "DATE=%year%" -T "TRACKNUMBER=%tracknr%" -T "GENRE=%genre%" -T "COMMENT=www.blues.at.ua" -T "URL=www.blues.at.ua" %source%

TOC извлечённого CD

Трек | Старт | Длительность | Начальный сектор | Конечный сектор --------------------------------------------------------------------- 1 | 0:00.00 | 4:47.04 | 0 | 21528 2 | 4:47.04 | 3:32.21 | 21529 | 37449 3 | 8:19.25 | 4:37.11 | 37450 | 58235 4 | 12:56.36 | 3:56.35 | 58236 | 75970 5 | 16:52.71 | 7:01.36 | 75971 | 107581 6 | 23:54.32 | 3:33.45 | 107582 | 123601 7 | 27:28.02 | 4:50.63 | 123602 | 145414 8 | 32:18.65 | 3:44.25 | 145415 | 162239 9 | 36:03.15 | 4:16.56 | 162240 | 181495 10 | 40:19.71 | 4:12.38 | 181496 | 200433 11 | 44:32.34 | 4:08.17 | 200434 | 219050 12 | 48:40.51 | 3:22.66 | 219051 | 234266 13 | 52:03.42 | 5:26.27 | 234267 | 258743

Характеристики диапазона извлечения и сообщения об ошибках

Выбранный диапазон

Имя файла D:\My MusicLarry\Mike Zito - Today\Mike Zito - Today.wav

Пиковый уровень 98.8 % Скорость извлечения 7.0 X Качество диапазона 100.0 % CRC копии 51D521EC Копирование... OK

Ошибок не произошло

Конец отчёта
 
REM GENRE BluesREM DATE 2008REM DISCID A30D790DREM COMMENT "ExactAudioCopy v1.0b3"PERFORMER "Mike Zito"TITLE "Today"FILE "Mike Zito - Today.flac" WAVE TRACK 01 AUDIO TITLE "Love Like This" PERFORMER "Mike Zito" INDEX 01 00:00:00 TRACK 02 AUDIO TITLE "Superman" PERFORMER "Mike Zito" INDEX 00 04:45:04 INDEX 01 04:47:04 TRACK 03 AUDIO TITLE "Holding Out for Love" PERFORMER "Mike Zito" INDEX 00 08:17:25 INDEX 01 08:19:25 TRACK 04 AUDIO TITLE "Little Red Corvette" PERFORMER "Mike Zito" INDEX 00 12:54:36 INDEX 01 12:56:36 TRACK 05 AUDIO TITLE "Universe" PERFORMER "Mike Zito" INDEX 00 16:50:71 INDEX 01 16:52:71 TRACK 06 AUDIO TITLE "Blinded" PERFORMER "Mike Zito" INDEX 00 23:52:32 INDEX 01 23:54:32 TRACK 07 AUDIO TITLE "Slow it Down" PERFORMER "Mike Zito" INDEX 00 27:26:02 INDEX 01 27:28:02 TRACK 08 AUDIO TITLE "Today" PERFORMER "Mike Zito" INDEX 00 32:16:65 INDEX 01 32:18:65 TRACK 09 AUDIO TITLE "No Big City" PERFORMER "Mike Zito" INDEX 00 36:01:15 INDEX 01 36:03:15 TRACK 10 AUDIO TITLE "Deep Down in Love" PERFORMER "Mike Zito" INDEX 00 40:17:71 INDEX 01 40:19:71 TRACK 11 AUDIO TITLE "Dirty Things" PERFORMER "Mike Zito" INDEX 00 44:30:34 INDEX 01 44:32:34 TRACK 12 AUDIO TITLE "Hollywood" PERFORMER "Mike Zito" INDEX 00 48:38:51 INDEX 01 48:40:51 TRACK 13 AUDIO TITLE "Time to go Home" PERFORMER "Mike Zito" INDEX 00 52:01:42 INDEX 01 52:03:42
 
-----------------------

DON'T MODIFY THIS FILE

-----------------------

PERFORMER: auCDtect Task Manager, ver. 1.5.1RC4 build 1.5.1.5Copyright (c) 2008-2010 y-soft. All rights reservedhttp://y-soft.org

ANALYZER: auCDtect: CD records authenticity detector, version 0.8.2Copyright (c) 2004 Oleg Berngardt. All rights reserved.Copyright (c) 2004 Alexander Djourik. All rights reserved.

FILE: Mike Zito - Today.flac Size: 380601313 Hash: 6A27771CC090681AE61446EE891D2FF2 Accuracy: -m0 Conclusion: CDDA 100% Signature: 164E7B3CDC080C518B4280DBCD8E144967E5D272
Доп. информация
Mike Zito - vocals, guitar
Benmont Tench - keyboards
Joe Sublett - sax
Darrell Leonard - trumpet
Hutch Hutchinson - bass
Tony Braunagel - drums


Трекер:  [ 16-Фев-2012 19:44 ]

  

Скачать .torrent

Размер .torrent файла 15 KB


Размер: 372 MB
Хэш (hash) релиза: 9a0a620ba37bfeda6a6259a6f4f083624c3407e5

Еще никто не оставлял запись к записи скачать торрент Mike Zito - Today - 2008 . Будь первым!

!Обратная связь