Скачать через торрент музыку Vince Hawkins & Company Slave - Vince Hawkins & Company Slave - 2011, APE бесплатно без регистрации torrent

Если у вас наблюдаются проблемы со скриншотами, переходом по ссылками, скачиванием торрентов - проблемы в блокировщике рекламы AdBlock. #хорошегоДня!


Статистика раздачи
Размер:  302 MB   |    Зарегистрирован:  5 лет 8 месяцев   |    .torrent скачан:  28 раз   |   
Раздают:  1  
   
Загрузка...
 
Автор Сообщение

Umakiro

avatar Umakiro


Vince Hawkins & Company Slave - Vince Hawkins & Company Slave

Жанр: Blues/Rock
Год издания диска: 2011
Аудио кодек: APE (*.ape)
Тип рипа: image+.cue
Битрейт аудио: lossless
Продолжительность: 49:06
Источник (релизер): CD
Наличие сканов в содержимом раздачи: да
Треклист:
01. THE GODS MADE LOVE [0:03:17.64]
02. GOIN' TO THE SOUTH SIDE [0:02:54.64]
03. THREE KINGS [0:03:39.64]
04. IT'S TIME [0:04:19.64]
05. PEACE ON EARTH [0:05:01.64]
06. IS LOVE [0:03:13.64]
07. MEDUSA'S DREAM [0:04:18.64]
08. ASHES IN MY WHISKEY [0:05:22.64]
09. BIG CITY BLUES [0:03:00.64]
10. MY SHIP [0:05:35.64]
11. CATHOUSE [0:08:21.64]
 
Exact Audio Copy V0.99 prebeta 4 from 23. January 2008

EAC extraction logfile from 20. February 2011, 13:02

Vince Hawkins & Company Slave / Vince Hawkins & Company Slave

Used drive : Optiarc DVD RW AD-7173A Adapter: 3 ID: 0

Read mode : SecureUtilize accurate stream : YesDefeat audio cache : YesMake use of C2 pointers : No

Read offset correction : 48Overread into Lead-In and Lead-Out : NoFill up missing offset samples with silence : YesDelete leading and trailing silent blocks : NoNull samples used in CRC calculations : YesUsed interface : Native Win32 interface for Win NT & 2000

Used output format : Internal WAV RoutinesSample format : 44.100 Hz; 16 Bit; Stereo

TOC of the extracted CD

Track | Start | Length | Start sector | End sector --------------------------------------------------------- 1 | 0:00.00 | 3:17.48 | 0 | 14822 2 | 3:17.48 | 2:54.48 | 14823 | 27920 3 | 6:12.21 | 3:39.48 | 27921 | 44393 4 | 9:51.69 | 4:19.48 | 44394 | 63866 5 | 14:11.42 | 5:01.48 | 63867 | 86489 6 | 19:13.15 | 3:13.48 | 86490 | 101012 7 | 22:26.63 | 4:18.48 | 101013 | 120410 8 | 26:45.36 | 5:22.48 | 120411 | 144608 9 | 32:08.09 | 3:00.48 | 144609 | 158156 10 | 35:08.57 | 5:35.48 | 158157 | 183329 11 | 40:44.30 | 8:21.48 | 183330 | 220952

Range status and errors

Selected range

Filename D:\КОЛЛЕКЦИЯ 10\Новая папка (2)\Vince Hawkins & Company Slave - Vince Hawkins & Company Slave.wav

Peak level 100.0 % Range quality 99.9 % Test CRC 54AEEA72 Copy CRC 54AEEA72 Copy OK

No errors occurred

AccurateRip summary

Track 1 not present in databaseTrack 2 not present in databaseTrack 3 not present in databaseTrack 4 not present in databaseTrack 5 not present in databaseTrack 6 not present in databaseTrack 7 not present in databaseTrack 8 not present in databaseTrack 9 not present in databaseTrack 10 not present in databaseTrack 11 not present in database

None of the tracks are present in the AccurateRip database

End of status report


Трекер:  [ 16-Фев-2012 19:43 ]

  

Скачать .torrent

Размер .torrent файла 13 KB


Размер: 302 MB
Хэш (hash) релиза: c65863de266864363e1bab6fd2b7f24bf514b694

Еще никто не оставлял запись к записи скачать торрент Vince Hawkins & Company Slave - Vince Hawkins & Company Slave - 2011, APE . Будь первым!

!Обратная связь