Скачать через торрент музыку Savoy Brown - Raw Sienna Looking In - 1970 бесплатно без регистрации torrent

Если у вас наблюдаются проблемы со скриншотами, переходом по ссылками, скачиванием торрентов - проблемы в блокировщике рекламы AdBlock. #хорошегоДня!


Статистика раздачи
Размер:  467 MB   |    Зарегистрирован:  5 лет 8 месяцев   |    .torrent скачан:  35 раз   |   
Раздают:  1  
   
Загрузка...
 
Автор Сообщение

Umakiro

avatar Umakiro


Savoy Brown - Raw Sienna / Looking In (1970)

Жанр: Blues, Rock
Страна-производитель диска: Great Britain
Год издания диска: 2005
Издатель (лейбл): BGO Records
Номер по каталогу: BGOCD666
Страна: England
Аудиокодек: APE (*.ape)
Тип рипа: image+.cue
Битрейт аудио: lossless
Продолжительность: 1:17:07
Источник (релизер): Собственный рип
Наличие сканов в содержимом раздачи: да
Треклист:
01 A Hard Way to Go
02 That Same Feelin'
03 Master Hare
04 Needle and Spoon
05 A Little More Wine
06 I'm Crying
07 Stay While the Night Is Young
08 Is That So
09 When I Was a Young Boy
10 Gypsy
11 Poor Girl
12 Money Can't Save Your Soul
13 Sunday Night
14 Looking In
15 Take It Easy
16 Sitting an' Thinking
17 Leavin' Again
18 Romanoff
 
Exact Audio Copy V0.99 prebeta 5 from 4. May 2009

Отчёт EAC об извлечении, выполненном 14. февраля 2012, 21:33

Savoy Brown / Raw Sienna / Looking In

Дисковод: Optiarc DVD RW AD-7280S Adapter: 2 ID: 0

Режим чтения : ДостоверностьИспользование точного потока : ДаОтключение кэша аудио : ДаИспользование указателей C2 : Нет

Коррекция смещения при чтении : 48Способность читать области Lead-in и Lead-out : НетЗаполнение пропущенных сэмплов тишиной : ДаУдаление блоков с тишиной в начале и конце : НетПри вычислениях CRC использовались нулевые сэмплы : ДаИнтерфейс : Установленный внешний ASPI-интерфейс

Выходной формат : Внутренние WAV-операцииФормат сэмплов : 44.100 Гц; 16 бит; стерео

TOC извлечённого CD

Трек | Старт | Длительность | Начальный сектор | Конечный сектор --------------------------------------------------------------------- 1 | 0:00.00 | 2:21.71 | 0 | 10645 2 | 2:21.71 | 3:40.03 | 10646 | 27148 3 | 6:01.74 | 4:52.63 | 27149 | 49111 4 | 10:54.62 | 3:20.26 | 49112 | 64137 5 | 14:15.13 | 4:55.23 | 64138 | 86285 6 | 19:10.36 | 4:19.42 | 86286 | 105752 7 | 23:30.03 | 3:10.16 | 105753 | 120018 8 | 26:40.19 | 7:43.67 | 120019 | 154810 9 | 34:24.11 | 3:05.69 | 154811 | 168754 10 | 37:30.05 | 1:00.02 | 168755 | 173256 11 | 38:30.07 | 4:08.73 | 173257 | 191929 12 | 42:39.05 | 5:32.15 | 191930 | 216844 13 | 48:11.20 | 5:24.03 | 216845 | 241147 14 | 53:35.23 | 5:19.45 | 241148 | 265117 15 | 58:54.68 | 5:44.13 | 265118 | 290930 16 | 64:39.06 | 2:53.25 | 290931 | 303930 17 | 67:32.31 | 8:30.12 | 303931 | 342192 18 | 76:02.43 | 1:04.12 | 342193 | 347004

Характеристики диапазона извлечения и сообщения об ошибках

Выбранный диапазон

Имя файла H:\Раздачи\Savoy Brown - Raw Sienna-Looking In 1970 - 2005\Savoy Brown - Raw Sienna Looking In.wav

Пиковый уровень 100.0 % Качество диапазона 100.0 % CRC теста 766E7358 CRC копии 766E7358 Копирование... OK

Ошибок не произошло

AccurateRip: сводка

Трек 1 точность не определена (достоверность 5) [CAB680F9], AccurateRip вернул [E4DF95BF]Трек 2 точность не определена (достоверность 5) [8F77CDC5], AccurateRip вернул [45B59A9B]Трек 3 точность не определена (достоверность 5) [8F4D8D63], AccurateRip вернул [82BBACF5]Трек 4 точность не определена (достоверность 5) [8652646D], AccurateRip вернул [9D096937]Трек 5 точность не определена (достоверность 5) [A74F8320], AccurateRip вернул [254F75B8]Трек 6 точность не определена (достоверность 5) [9A480C9B], AccurateRip вернул [DDC0F0CF]Трек 7 точность не определена (достоверность 5) [7ACD29CE], AccurateRip вернул [F4391472]Трек 8 точность не определена (достоверность 5) [DF048844], AccurateRip вернул [190068AA]Трек 9 точность не определена (достоверность 5) [94723A8D], AccurateRip вернул [86E16BFD]Трек 10 точность не определена (достоверность 5) [713CA2EF], AccurateRip вернул [9AEBD5BB]Трек 11 точность не определена (достоверность 5) [B91C3E33], AccurateRip вернул [814B44FB]Трек 12 точность не определена (достоверность 5) [AACAF84E], AccurateRip вернул [02F19930]Трек 13 точность не определена (достоверность 5) [F429B998], AccurateRip вернул [BECF247C]Трек 14 точность не определена (достоверность 4) [C5724498], AccurateRip вернул [63976EE2]Трек 15 точность не определена (достоверность 5) [CEBF0728], AccurateRip вернул [D7C37FA0]Трек 16 точность не определена (достоверность 5) [3A2595A6], AccurateRip вернул [A328CA6E]Трек 17 точность не определена (достоверность 4) [71A8594B], AccurateRip вернул [E6C07ABD]Трек 18 точность не определена (достоверность 5) [8DDB59B5], AccurateRip вернул [ED7B8811]

Ни один трек не прошёл проверки на точностьВ вашей базе может быть иной вариант штамповки диска

Конец отчёта
 
REM GENRE BluesREM DATE 1970REM DISCID EC121212REM COMMENT "ExactAudioCopy v0.99pb5"PERFORMER "Savoy Brown"TITLE "Raw Sienna / Looking In"FILE "Savoy Brown - Raw Sienna Looking In.wav" WAVE TRACK 01 AUDIO TITLE "A Hard Way to Go" PERFORMER "Savoy Brown" INDEX 01 00:00:00 TRACK 02 AUDIO TITLE "That Same Feelin'" PERFORMER "Savoy Brown" INDEX 01 02:21:71 TRACK 03 AUDIO TITLE "Master Hare" PERFORMER "Savoy Brown" INDEX 01 06:01:74 TRACK 04 AUDIO TITLE "Needle and Spoon" PERFORMER "Savoy Brown" INDEX 01 10:54:62 TRACK 05 AUDIO TITLE "A Little More Wine" PERFORMER "Savoy Brown" INDEX 01 14:15:13 TRACK 06 AUDIO TITLE "I'm Crying" PERFORMER "Savoy Brown" INDEX 01 19:10:36 TRACK 07 AUDIO TITLE "Stay While the Night Is Young" PERFORMER "Savoy Brown" INDEX 01 23:30:03 TRACK 08 AUDIO TITLE "Is That So" PERFORMER "Savoy Brown" INDEX 01 26:40:19 TRACK 09 AUDIO TITLE "When I Was a Young Boy" PERFORMER "Savoy Brown" INDEX 01 34:24:11 TRACK 10 AUDIO TITLE "Gypsy" PERFORMER "Savoy Brown" INDEX 01 37:30:05 TRACK 11 AUDIO TITLE "Poor Girl" PERFORMER "Savoy Brown" INDEX 01 38:30:07 TRACK 12 AUDIO TITLE "Money Can't Save Your Soul" PERFORMER "Savoy Brown" INDEX 01 42:39:05 TRACK 13 AUDIO TITLE "Sunday Night" PERFORMER "Savoy Brown" INDEX 01 48:11:20 TRACK 14 AUDIO TITLE "Looking In" PERFORMER "Savoy Brown" INDEX 01 53:35:23 TRACK 15 AUDIO TITLE "Take It Easy" PERFORMER "Savoy Brown" INDEX 01 58:54:68 TRACK 16 AUDIO TITLE "Sitting an' Thinking" PERFORMER "Savoy Brown" INDEX 01 64:39:06 TRACK 17 AUDIO TITLE "Leavin' Again" PERFORMER "Savoy Brown" INDEX 01 67:32:31 TRACK 18 AUDIO TITLE "Romanoff" PERFORMER "Savoy Brown" INDEX 01 76:02:43
 


Трекер:  [ 16-Фев-2012 19:43 ]

  

Скачать .torrent

Размер .torrent файла 19 KB


Размер: 467 MB
Хэш (hash) релиза: 620a45bf5285d36d824fe341456005f193028108

Еще никто не оставлял запись к записи скачать торрент Savoy Brown - Raw Sienna Looking In - 1970 . Будь первым!

!Обратная связь