Скачать через торрент музыку Tina Brooks - Back to the Tracks бесплатно без регистрации torrent

Если у вас наблюдаются проблемы со скриншотами, переходом по ссылками, скачиванием торрентов - проблемы в блокировщике рекламы AdBlock. #хорошегоДня!


Статистика раздачи
Размер:  335 MB   |    Зарегистрирован:  5 лет 8 месяцев   |    .torrent скачан:  26 раз   |   
Раздают:  1  
   
Загрузка...
 
Автор Сообщение

Umakiro

avatar Umakiro


Tina Brooks - Back to the Tracks
Жанр: Hard Bop
Год выпуска диска: 1998
Производитель диска: Blue Note/Capitol (CDP 7243 8 21737 2 4)
Аудио кодек: FLAC
Тип рипа: image+.cue
Битрейт аудио: lossless
Продолжительность: 0:38:29
Трэклист:
01. Back to the Tracks (8:03)
02. Street Singer (10:21)
03. The Blues and I (8:55)
04. For Heaven's Sake (6:05)
05. The Ruby and the Pearl (5:06)

Blue Mitchell - trumpet
Jackie McLean - alto sax [#2 only]
Tina Brooks - tenor sax
Kenny Drew - piano
Paul Chambers - bass
Art Taylor - drums

Recorded at the Van Gelder Studios, Englewood Cliffs, New Jersey on Semptember 1 [#2] and October 20 [all others], 1960

За рип спасибо Oceandrop
 
Exact Audio Copy V0.99 prebeta 5 from 4. May 2009

EAC extraction logfile from 22. June 2010, 19:51

Tina Brooks / Back to the Tracks

Used drive : ASUS DRW-1608P3S Adapter: 0 ID: 1

Read mode : SecureUtilize accurate stream : YesDefeat audio cache : YesMake use of C2 pointers : No

Read offset correction : 48Overread into Lead-In and Lead-Out : NoFill up missing offset samples with silence : YesDelete leading and trailing silent blocks : NoNull samples used in CRC calculations : YesUsed interface : Native Win32 interface for Win NT & 2000

Used output format : Internal WAV RoutinesSample format : 44.100 Hz; 16 Bit; Stereo

TOC of the extracted CD

Track | Start | Length | Start sector | End sector --------------------------------------------------------- 1 | 0:00.00 | 8:03.22 | 0 | 36246 2 | 8:03.22 | 10:20.53 | 36247 | 82799 3 | 18:24.00 | 8:54.72 | 82800 | 122921 4 | 27:18.72 | 6:04.48 | 122922 | 150269 5 | 33:23.45 | 5:05.60 | 150270 | 173204

Range status and errors

Selected range

Filename H:\##EXTRACT-Tina Brooks - Back to the Tracks\Tina Brooks - Back to the Tracks.wav

Peak level 96.5 % Range quality 100.0 % Test CRC 74669A9B Copy CRC 74669A9B Copy OK

No errors occurred

AccurateRip summary

Track 1 accurately ripped (confidence 6) [806EED32]Track 2 accurately ripped (confidence 6) [8CB7A29B]Track 3 accurately ripped (confidence 6) [85A30522]Track 4 accurately ripped (confidence 6) [D60A4497]Track 5 accurately ripped (confidence 6) [A4D16EAB]

All tracks accurately ripped

End of status report


Трекер:  [ 16-Фев-2012 16:49 ]

  

Скачать .torrent

Размер .torrent файла 15 KB


Размер: 335 MB
Хэш (hash) релиза: 85d85a6d2cfc487cd29bf940ca3dfd39efab69bf

Еще никто не оставлял запись к записи скачать торрент Tina Brooks - Back to the Tracks . Будь первым!

!Обратная связь