Скачать через торрент музыку Stanley Turrentine - If I Could - 1993, APE бесплатно без регистрации torrent

Если у вас наблюдаются проблемы со скриншотами, переходом по ссылками, скачиванием торрентов - проблемы в блокировщике рекламы AdBlock. #хорошегоДня!


Статистика раздачи
Размер:  285 MB   |    Зарегистрирован:  5 лет 8 месяцев   |    .torrent скачан:  34 раза   |   
Раздают:  1  
   
Загрузка...
 
Автор Сообщение

Umakiro

avatar Umakiro


Stanley Turrentine - If I Could
Жанр: Soul-Jazz
Год выпуска диска: 1993
Производитель диска: MusicMaster Jazz (01612-65103-2)
Аудио кодек: APE
Тип рипа: image+.cue
Битрейт аудио: lossless
Продолжительность: 0:54:53
Трэклист:
01. June Bug (7:58)
02. Caravan (15:24)
03. I Remember Bill (6:19)
04. The Avenue (4:04)
05. Marvin's Song (6:16)
06. Maybe September (3:36)
07. A Luta Continua (6:30)
08. If I Could (4:47)

Stanley Turrentine - tenor sax
Hubert Laws - flute, piccolo
Ron Carter - bass
Grady Tate - drums
Sir Roland Hanna - piano
Steve Kroon - percussion
Vincent Leroy Evans - kalimba [#7 only]
Matthew Raimondi - strimgs (concertmaster)
Gloria Agostini - harp

Tracks #1, 2, 4, 5, 7 recorded May 10-12, 1993 at Sound on Sound Recording Studios, New York City
Tracks #3, 6 & 8 recorded at National Recording Studio, New York City on May 13, 1993

За рип спасибо bINkI
Рип с оригинала, в отличии от недавно выложенного
 
Exact Audio Copy V0.99 prebeta 4 from 23. January 2008

EAC extraction logfile from 9. April 2009, 15:07

Stanley Turrentine / If I Could

Used drive : HL-DT-STDVD-RAM GH22NP20 Adapter: 1 ID: 1

Read mode : SecureUtilize accurate stream : YesDefeat audio cache : YesMake use of C2 pointers : No

Read offset correction : 102Overread into Lead-In and Lead-Out : NoFill up missing offset samples with silence : YesDelete leading and trailing silent blocks : NoNull samples used in CRC calculations : YesUsed interface : Installed external ASPI interface

Used output format : Internal WAV RoutinesSample format : 44.100 Hz; 16 Bit; Stereo

TOC of the extracted CD

Track | Start | Length | Start sector | End sector --------------------------------------------------------- 1 | 0:00.37 | 7:58.03 | 37 | 35889 2 | 7:58.40 | 15:23.42 | 35890 | 105156 3 | 23:22.07 | 6:19.13 | 105157 | 133594 4 | 29:41.20 | 4:04.02 | 133595 | 151896 5 | 33:45.22 | 6:15.53 | 151897 | 180074 6 | 40:01.00 | 3:36.15 | 180075 | 196289 7 | 43:37.15 | 6:29.45 | 196290 | 225509 8 | 50:06.60 | 4:47.12 | 225510 | 247046

Range status and errors

Selected range

Filename C:\Documents and Settings\Proprietario.RT\Desktop\R\S Turrentine - If I Could\Stanley Turrentine - If I Could.wav

Peak level 100.0 % Range quality 100.0 % Copy CRC A69293DF Copy OK

No errors occurred

End of status report


Трекер:  [ 16-Фев-2012 16:48 ]

  

Скачать .torrent

Размер .torrent файла 12 KB


Размер: 285 MB
Хэш (hash) релиза: 1adb208dc1b77d678bf95bbd2de6bb46664009f2

Еще никто не оставлял запись к записи скачать торрент Stanley Turrentine - If I Could - 1993, APE . Будь первым!

!Обратная связь