Скачать через торрент музыку Miles Davis - En Concert avec Europe 1 Olympia бесплатно без регистрации torrent

Если у вас наблюдаются проблемы со скриншотами, переходом по ссылками, скачиванием торрентов - проблемы в блокировщике рекламы AdBlock. #хорошегоДня!


Статистика раздачи
Размер:  1.2 GB   |    Зарегистрирован:  5 лет 8 месяцев   |    .torrent скачан:  37 раз   |   
Раздают:  1  
   
Загрузка...
 
Автор Сообщение

Umakiro

avatar Umakiro


Miles Davis - En Concert avec Europe 1 Olympia
Жанр: Hard Bop / Cool Jazz
Год выпуска диска: 1994
Производитель диска: RTE/TREMA
Аудио кодек: FLAC
Тип рипа: tracks+.cue
Битрейт аудио: lossless
Продолжительность: 3:24:09
Треклист:
Disc 1:
01. All Of You (17:06)
02. So What (13:26)
03. On Green Dolphin Street (14:42)
Disc 2:
01. Walkin' (15:53)
02. Bye Bye Blackbird (13:58)
03. Round About Midnight (5:37)
04. Oleo (4:23)
05. The Theme (0:50)
Disc 3:
01. Walkin' (11:46)
02. Autumn Leaves (13:13)
03. Four (8:47)
04. Unidentified (5:05)
05. Round About Midnight (5:41)
06. No Blues (14:33)
07. The Theme (0:48)
Disc 4:
01. Walkin' (9:37)
02. If I Were a Bell (11:59)
03. Fran Dance (7:24)
04. Two Bass Hit (5:50)
05. All of You (13:04)
06. So What (9:27)
07. The Theme (1:01)

Miles Davis - trumpet
John Coltrane - tenor sax [CD # 1, 2]
Sonny Stitt - tenor sax [CD # 3, 4]
Wynton Kelly - piano
Paul Chambers - bass
Jimmy Cobb - drums

Recorded live at Olympia Theater, Paris, March 21 [CD # 1, 2] and October 11 [CD # 3, 4], 1960

За рип спасибо ruskaval
 
Exact Audio Copy V0.99 prebeta 5 from 4. May 2009

EAC extraction logfile from 23. July 2010, 14:53

Miles Davis / En Concert avec Europe 1 Olympia (CD1)

Used drive : TSSTcorpCD/DVDW TS-H552L Adapter: 3 ID: 0

Read mode : SecureUtilize accurate stream : YesDefeat audio cache : YesMake use of C2 pointers : No

Read offset correction : 6Overread into Lead-In and Lead-Out : NoFill up missing offset samples with silence : YesDelete leading and trailing silent blocks : NoNull samples used in CRC calculations : YesUsed interface : Native Win32 interface for Win NT & 2000Gap handling : Appended to previous track

Used output format : User Defined EncoderSelected bitrate : 1024 kBit/sQuality : HighAdd ID3 tag : NoCommand line compressor : C:\Program Files\FLAC\flac.exeAdditional command line options : -6 -V -T "ARTIST=%a" -T "TITLE=%t" -T "ALBUM=%g" -T "DATE=%y" -T "TRACKNUMBER=%n" -T "GENRE=%m" -T "COMMENT=EAC FLAC -6" %s

TOC of the extracted CD

Track | Start | Length | Start sector | End sector --------------------------------------------------------- 1 | 0:00.32 | 17:05.65 | 32 | 76971 2 | 17:06.22 | 13:25.60 | 76972 | 137406 3 | 30:32.07 | 14:42.25 | 137407 | 203581

Track 1

Filename C:\ruskaval\Miles Davis - En Concert avec Europe 1. Olympia featuring John Coltrane (Mars 1960) & Sonny Stitt (Octobre 1960) [4CD Boxset] {1994 TREMA}\CD1\01 - All Of You.wav

Pre-gap length 0:00:02.32

Peak level 97.7 % Track quality 100.0 % Test CRC A5E2511E Copy CRC A5E2511E Accurately ripped (confidence 4) [52D9B32F] Copy OK

Track 2

Filename C:\ruskaval\Miles Davis - En Concert avec Europe 1. Olympia featuring John Coltrane (Mars 1960) & Sonny Stitt (Octobre 1960) [4CD Boxset] {1994 TREMA}\CD1\02 - So What.wav

Peak level 93.3 % Track quality 100.0 % Test CRC 63A0238E Copy CRC 63A0238E Accurately ripped (confidence 4) [6818C391] Copy OK

Track 3

Filename C:\ruskaval\Miles Davis - En Concert avec Europe 1. Olympia featuring John Coltrane (Mars 1960) & Sonny Stitt (Octobre 1960) [4CD Boxset] {1994 TREMA}\CD1\03 - On Green Dolphin Street.wav

Peak level 92.7 % Track quality 100.0 % Test CRC A20AAA7E Copy CRC A20AAA7E Accurately ripped (confidence 4) [2277AE48] Copy OK

All tracks accurately ripped

No errors occurred

End of status report
 
Exact Audio Copy V0.99 prebeta 5 from 4. May 2009

EAC extraction logfile from 23. July 2010, 15:07

Miles Davis / En Concert avec Europe 1 Olympia (CD2)

Used drive : TSSTcorpCD/DVDW TS-H552L Adapter: 3 ID: 0

Read mode : SecureUtilize accurate stream : YesDefeat audio cache : YesMake use of C2 pointers : No

Read offset correction : 6Overread into Lead-In and Lead-Out : NoFill up missing offset samples with silence : YesDelete leading and trailing silent blocks : NoNull samples used in CRC calculations : YesUsed interface : Native Win32 interface for Win NT & 2000Gap handling : Appended to previous track

Used output format : User Defined EncoderSelected bitrate : 1024 kBit/sQuality : HighAdd ID3 tag : NoCommand line compressor : C:\Program Files\FLAC\flac.exeAdditional command line options : -6 -V -T "ARTIST=%a" -T "TITLE=%t" -T "ALBUM=%g" -T "DATE=%y" -T "TRACKNUMBER=%n" -T "GENRE=%m" -T "COMMENT=EAC FLAC -6" %s

TOC of the extracted CD

Track | Start | Length | Start sector | End sector --------------------------------------------------------- 1 | 0:00.32 | 15:53.03 | 32 | 71509 2 | 15:53.35 | 13:58.07 | 71510 | 134366 3 | 29:51.42 | 5:36.48 | 134367 | 159614 4 | 35:28.15 | 4:22.60 | 159615 | 179324 5 | 39:51.00 | 0:50.32 | 179325 | 183106

Track 1

Filename C:\ruskaval\Miles Davis - En Concert avec Europe 1. Olympia featuring John Coltrane (Mars 1960) & Sonny Stitt (Octobre 1960) [4CD Boxset] {1994 TREMA}\CD2\01 - Walkin'.wav

Pre-gap length 0:00:02.32

Peak level 95.5 % Track quality 99.9 % Test CRC 431415A6 Copy CRC 431415A6 Accurately ripped (confidence 5) [2CD7A1B0] Copy OK

Track 2

Filename C:\ruskaval\Miles Davis - En Concert avec Europe 1. Olympia featuring John Coltrane (Mars 1960) & Sonny Stitt (Octobre 1960) [4CD Boxset] {1994 TREMA}\CD2\02 - Bye Bye Blackbird.wav

Peak level 100.0 % Track quality 99.9 % Test CRC E973D159 Copy CRC E973D159 Accurately ripped (confidence 5) [EE7474E7] Copy OK

Track 3

Filename C:\ruskaval\Miles Davis - En Concert avec Europe 1. Olympia featuring John Coltrane (Mars 1960) & Sonny Stitt (Octobre 1960) [4CD Boxset] {1994 TREMA}\CD2\03 - Round About Midnight.wav

Peak level 100.0 % Track quality 100.0 % Test CRC 75272DEE Copy CRC 75272DEE Accurately ripped (confidence 5) [7E205CEF] Copy OK

Track 4

Filename C:\ruskaval\Miles Davis - En Concert avec Europe 1. Olympia featuring John Coltrane (Mars 1960) & Sonny Stitt (Octobre 1960) [4CD Boxset] {1994 TREMA}\CD2\04 - Oleo.wav

Peak level 99.6 % Track quality 100.0 % Test CRC AD774888 Copy CRC AD774888 Accurately ripped (confidence 5) [C1B16AF4] Copy OK

Track 5

Filename C:\ruskaval\Miles Davis - En Concert avec Europe 1. Olympia featuring John Coltrane (Mars 1960) & Sonny Stitt (Octobre 1960) [4CD Boxset] {1994 TREMA}\CD2\05 - The Theme.wav

Peak level 83.6 % Track quality 100.0 % Test CRC BAE9D9C6 Copy CRC BAE9D9C6 Accurately ripped (confidence 5) [D691E0F5] Copy OK

All tracks accurately ripped

No errors occurred

End of status report
 
Exact Audio Copy V0.99 prebeta 5 from 4. May 2009

EAC extraction logfile from 23. July 2010, 15:14

Miles Davis / En Concert avec Europe 1 Olympia (CD3)

Used drive : TSSTcorpCD/DVDW TS-H552L Adapter: 3 ID: 0

Read mode : SecureUtilize accurate stream : YesDefeat audio cache : YesMake use of C2 pointers : No

Read offset correction : 6Overread into Lead-In and Lead-Out : NoFill up missing offset samples with silence : YesDelete leading and trailing silent blocks : NoNull samples used in CRC calculations : YesUsed interface : Native Win32 interface for Win NT & 2000Gap handling : Appended to previous track

Used output format : User Defined EncoderSelected bitrate : 1024 kBit/sQuality : HighAdd ID3 tag : NoCommand line compressor : C:\Program Files\FLAC\flac.exeAdditional command line options : -6 -V -T "ARTIST=%a" -T "TITLE=%t" -T "ALBUM=%g" -T "DATE=%y" -T "TRACKNUMBER=%n" -T "GENRE=%m" -T "COMMENT=EAC FLAC -6" %s

TOC of the extracted CD

Track | Start | Length | Start sector | End sector --------------------------------------------------------- 1 | 0:00.33 | 11:45.45 | 33 | 52952 2 | 11:46.03 | 13:12.45 | 52953 | 112397 3 | 24:58.48 | 8:46.65 | 112398 | 151912 4 | 33:45.38 | 5:05.22 | 151913 | 174809 5 | 38:50.60 | 5:41.08 | 174810 | 200392 6 | 44:31.68 | 14:32.45 | 200393 | 265837 7 | 59:04.38 | 0:47.70 | 265838 | 269432

Track 1

Filename C:\ruskaval\Miles Davis - En Concert avec Europe 1. Olympia featuring John Coltrane (Mars 1960) & Sonny Stitt (Octobre 1960) [4CD Boxset] {1994 TREMA}\CD3\01 - Walkin'.wav

Pre-gap length 0:00:02.33

Peak level 100.0 % Track quality 99.9 % Test CRC E65FC672 Copy CRC E65FC672 Accurately ripped (confidence 4) [70B89860] Copy OK

Track 2

Filename C:\ruskaval\Miles Davis - En Concert avec Europe 1. Olympia featuring John Coltrane (Mars 1960) & Sonny Stitt (Octobre 1960) [4CD Boxset] {1994 TREMA}\CD3\02 - Autumn Leaves.wav

Peak level 97.7 % Track quality 100.0 % Test CRC 59F05A4F Copy CRC 59F05A4F Accurately ripped (confidence 4) [9A7C1A6E] Copy OK

Track 3

Filename C:\ruskaval\Miles Davis - En Concert avec Europe 1. Olympia featuring John Coltrane (Mars 1960) & Sonny Stitt (Octobre 1960) [4CD Boxset] {1994 TREMA}\CD3\03 - Four.wav

Peak level 98.6 % Track quality 100.0 % Test CRC 62A622E5 Copy CRC 62A622E5 Accurately ripped (confidence 4) [06F55751] Copy OK

Track 4

Filename C:\ruskaval\Miles Davis - En Concert avec Europe 1. Olympia featuring John Coltrane (Mars 1960) & Sonny Stitt (Octobre 1960) [4CD Boxset] {1994 TREMA}\CD3\04 - Unidentified.wav

Peak level 100.0 % Track quality 100.0 % Test CRC A0F8FE78 Copy CRC A0F8FE78 Accurately ripped (confidence 4) [7C2D9CAF] Copy OK

Track 5

Filename C:\ruskaval\Miles Davis - En Concert avec Europe 1. Olympia featuring John Coltrane (Mars 1960) & Sonny Stitt (Octobre 1960) [4CD Boxset] {1994 TREMA}\CD3\05 - Round About Midnight.wav

Peak level 70.6 % Track quality 100.0 % Test CRC D6B8F7DA Copy CRC D6B8F7DA Accurately ripped (confidence 4) [12EC3BBA] Copy OK

Track 6

Filename C:\ruskaval\Miles Davis - En Concert avec Europe 1. Olympia featuring John Coltrane (Mars 1960) & Sonny Stitt (Octobre 1960) [4CD Boxset] {1994 TREMA}\CD3\06 - No Blues.wav

Peak level 100.0 % Track quality 100.0 % Test CRC 779FB5AE Copy CRC 779FB5AE Accurately ripped (confidence 4) [1BD9F8E1] Copy OK

Track 7

Filename C:\ruskaval\Miles Davis - En Concert avec Europe 1. Olympia featuring John Coltrane (Mars 1960) & Sonny Stitt (Octobre 1960) [4CD Boxset] {1994 TREMA}\CD3\07 - The Theme.wav

Peak level 90.3 % Track quality 100.0 % Test CRC 38AF4EDC Copy CRC 38AF4EDC Accurately ripped (confidence 4) [200BBDB7] Copy OK

All tracks accurately ripped

No errors occurred

End of status report
 
Exact Audio Copy V0.99 prebeta 5 from 4. May 2009

EAC extraction logfile from 23. July 2010, 20:14

Miles Davis / En Concert avec Europe 1 Olympia (CD4)

Used drive : TSSTcorpCD/DVDW TS-H552L Adapter: 3 ID: 0

Read mode : SecureUtilize accurate stream : YesDefeat audio cache : YesMake use of C2 pointers : No

Read offset correction : 6Overread into Lead-In and Lead-Out : NoFill up missing offset samples with silence : YesDelete leading and trailing silent blocks : NoNull samples used in CRC calculations : YesUsed interface : Native Win32 interface for Win NT & 2000Gap handling : Appended to previous track

Used output format : User Defined EncoderSelected bitrate : 1024 kBit/sQuality : HighAdd ID3 tag : NoCommand line compressor : C:\Program Files\FLAC\flac.exeAdditional command line options : -6 -V -T "ARTIST=%a" -T "TITLE=%t" -T "ALBUM=%g" -T "DATE=%y" -T "TRACKNUMBER=%n" -T "GENRE=%m" -T "COMMENT=EAC FLAC -6" %s

TOC of the extracted CD

Track | Start | Length | Start sector | End sector --------------------------------------------------------- 1 | 0:00.33 | 9:36.45 | 33 | 43277 2 | 9:37.03 | 11:59.32 | 43278 | 97234 3 | 21:36.35 | 7:24.03 | 97235 | 130537 4 | 29:00.38 | 5:49.55 | 130538 | 156767 5 | 34:50.18 | 13:03.42 | 156768 | 215534 6 | 47:53.60 | 9:27.20 | 215535 | 258079 7 | 57:21.05 | 1:01.28 | 258080 | 262682

Track 1

Filename C:\ruskaval\Miles Davis - En Concert avec Europe 1. Olympia featuring John Coltrane (Mars 1960) & Sonny Stitt (Octobre 1960) [4CD Boxset] {1994 TREMA}\CD4\01 - Walkin'.wav

Pre-gap length 0:00:02.33

Peak level 100.0 % Track quality 100.0 % Test CRC 00A98985 Copy CRC 00A98985 Accurately ripped (confidence 3) [DF241D3D] Copy OK

Track 2

Filename C:\ruskaval\Miles Davis - En Concert avec Europe 1. Olympia featuring John Coltrane (Mars 1960) & Sonny Stitt (Octobre 1960) [4CD Boxset] {1994 TREMA}\CD4\02 - If I Were a Bell.wav

Peak level 95.3 % Track quality 100.0 % Test CRC AD756E07 Copy CRC AD756E07 Accurately ripped (confidence 3) [B53AEB13] Copy OK

Track 3

Filename C:\ruskaval\Miles Davis - En Concert avec Europe 1. Olympia featuring John Coltrane (Mars 1960) & Sonny Stitt (Octobre 1960) [4CD Boxset] {1994 TREMA}\CD4\03 - Fran Dance.wav

Peak level 90.1 % Track quality 100.0 % Test CRC 41771062 Copy CRC 41771062 Accurately ripped (confidence 3) [88EAC15C] Copy OK

Track 4

Filename C:\ruskaval\Miles Davis - En Concert avec Europe 1. Olympia featuring John Coltrane (Mars 1960) & Sonny Stitt (Octobre 1960) [4CD Boxset] {1994 TREMA}\CD4\04 - Two Bass Hit.wav

Peak level 91.0 % Track quality 100.0 % Test CRC 473332FE Copy CRC 473332FE Accurately ripped (confidence 3) [95FCF98C] Copy OK

Track 5

Filename C:\ruskaval\Miles Davis - En Concert avec Europe 1. Olympia featuring John Coltrane (Mars 1960) & Sonny Stitt (Octobre 1960) [4CD Boxset] {1994 TREMA}\CD4\05 - All of You.wav

Peak level 91.2 % Track quality 100.0 % Test CRC 387FAC75 Copy CRC 387FAC75 Accurately ripped (confidence 3) [6FE402C7] Copy OK

Track 6

Filename C:\ruskaval\Miles Davis - En Concert avec Europe 1. Olympia featuring John Coltrane (Mars 1960) & Sonny Stitt (Octobre 1960) [4CD Boxset] {1994 TREMA}\CD4\06 - So What.wav

Peak level 83.0 % Track quality 100.0 % Test CRC 3F5E063C Copy CRC 3F5E063C Accurately ripped (confidence 3) [4B74EBC8] Copy OK

Track 7

Filename C:\ruskaval\Miles Davis - En Concert avec Europe 1. Olympia featuring John Coltrane (Mars 1960) & Sonny Stitt (Octobre 1960) [4CD Boxset] {1994 TREMA}\CD4\07 - The Theme.wav

Peak level 64.0 % Track quality 100.0 % Test CRC EA6F5AF2 Copy CRC EA6F5AF2 Accurately ripped (confidence 3) [F89333D7] Copy OK

All tracks accurately ripped

No errors occurred

End of status report
 
REM GENRE JazzREM DATE 1994REM DISCID 1D0A9A03REM COMMENT "ExactAudioCopy v0.99pb5"PERFORMER "Miles Davis"TITLE "En Concert avec Europe 1 Olympia (CD1)"FILE "01 - All Of You.wav" WAVE TRACK 01 AUDIO TITLE "All Of You" PERFORMER "Miles Davis" PREGAP 00:00:32 INDEX 01 00:00:00FILE "02 - So What.wav" WAVE TRACK 02 AUDIO TITLE "So What" PERFORMER "Miles Davis" INDEX 01 00:00:00FILE "03 - On Green Dolphin Street.wav" WAVE TRACK 03 AUDIO TITLE "On Green Dolphin Street" PERFORMER "Miles Davis" INDEX 01 00:00:00
 
REM GENRE JazzREM DATE 1994REM DISCID 40098905REM COMMENT "ExactAudioCopy v0.99pb5"PERFORMER "Miles Davis"TITLE "En Concert avec Europe 1 Olympia (CD2)"FILE "01 - Walkin'.wav" WAVE TRACK 01 AUDIO TITLE "Walkin'" PERFORMER "Miles Davis" PREGAP 00:00:32 INDEX 01 00:00:00FILE "02 - Bye Bye Blackbird.wav" WAVE TRACK 02 AUDIO TITLE "Bye Bye Blackbird" PERFORMER "Miles Davis" INDEX 01 00:00:00FILE "03 - Round About Midnight.wav" WAVE TRACK 03 AUDIO TITLE "Round About Midnight" PERFORMER "Miles Davis" INDEX 01 00:00:00FILE "04 - Oleo.wav" WAVE TRACK 04 AUDIO TITLE "Oleo" PERFORMER "Miles Davis" INDEX 01 00:00:00FILE "05 - The Theme.wav" WAVE TRACK 05 AUDIO TITLE "The Theme" PERFORMER "Miles Davis" INDEX 01 00:00:00
 
REM GENRE JazzREM DATE 1994REM DISCID 500E0807REM COMMENT "ExactAudioCopy v0.99pb5"PERFORMER "Miles Davis"TITLE "En Concert avec Europe 1 Olympia (CD3)"FILE "01 - Walkin'.wav" WAVE TRACK 01 AUDIO TITLE "Walkin'" PERFORMER "Miles Davis" PREGAP 00:00:33 INDEX 01 00:00:00FILE "02 - Autumn Leaves.wav" WAVE TRACK 02 AUDIO TITLE "Autumn Leaves" PERFORMER "Miles Davis" INDEX 01 00:00:00FILE "03 - Four.wav" WAVE TRACK 03 AUDIO TITLE "Four" PERFORMER "Miles Davis" INDEX 01 00:00:00FILE "04 - Unidentified.wav" WAVE TRACK 04 AUDIO TITLE "Unidentified" PERFORMER "Miles Davis" INDEX 01 00:00:00FILE "05 - Round About Midnight.wav" WAVE TRACK 05 AUDIO TITLE "Round About Midnight" PERFORMER "Miles Davis" INDEX 01 00:00:00FILE "06 - No Blues.wav" WAVE TRACK 06 AUDIO TITLE "No Blues" PERFORMER "Miles Davis" INDEX 01 00:00:00FILE "07 - The Theme.wav" WAVE TRACK 07 AUDIO TITLE "The Theme" PERFORMER "Miles Davis" INDEX 01 00:00:00
 
REM GENRE JazzREM DATE 1994REM DISCID 6A0DAE07REM COMMENT "ExactAudioCopy v0.99pb5"PERFORMER "Miles Davis"TITLE "En Concert avec Europe 1 Olympia (CD4)"FILE "01 - Walkin'.wav" WAVE TRACK 01 AUDIO TITLE "Walkin'" PERFORMER "Miles Davis" PREGAP 00:00:33 INDEX 01 00:00:00FILE "02 - If I Were a Bell.wav" WAVE TRACK 02 AUDIO TITLE "If I Were a Bell" PERFORMER "Miles Davis" INDEX 01 00:00:00FILE "03 - Fran Dance.wav" WAVE TRACK 03 AUDIO TITLE "Fran Dance" PERFORMER "Miles Davis" INDEX 01 00:00:00FILE "04 - Two Bass Hit.wav" WAVE TRACK 04 AUDIO TITLE "Two Bass Hit" PERFORMER "Miles Davis" INDEX 01 00:00:00FILE "05 - All of You.wav" WAVE TRACK 05 AUDIO TITLE "All of You" PERFORMER "Miles Davis" INDEX 01 00:00:00FILE "06 - So What.wav" WAVE TRACK 06 AUDIO TITLE "So What" PERFORMER "Miles Davis" INDEX 01 00:00:00FILE "07 - The Theme.wav" WAVE TRACK 07 AUDIO TITLE "The Theme" PERFORMER "Miles Davis" INDEX 01 00:00:00


Трекер:  [ 16-Фев-2012 16:48 ]

  

Скачать .torrent

Размер .torrent файла 15 KB


Размер: 1.2 GB
Хэш (hash) релиза: 2571e9b66e2a740d2083005180a44d69a52148cb

Еще никто не оставлял запись к записи скачать торрент Miles Davis - En Concert avec Europe 1 Olympia . Будь первым!

!Обратная связь