Скачать через торрент музыку Aldo Romano - Threesome - 2004, FLAC бесплатно без регистрации torrent

Если у вас наблюдаются проблемы со скриншотами, переходом по ссылками, скачиванием торрентов - проблемы в блокировщике рекламы AdBlock. #хорошегоДня!


Статистика раздачи
Размер:  398 MB   |    Зарегистрирован:  5 лет 8 месяцев   |    .torrent скачан:  34 раза   |   
Раздают:  1  
   
Загрузка...
 
Автор Сообщение

Umakiro

avatar Umakiro


Aldo Romano - Threesome
Жанр: Post-Bop / Free Jazz
Год выпуска диска: 2004
Производитель диска: Universal
Аудио кодек: FLAC
Тип рипа: tracks+.cue
Битрейт аудио: lossless
Продолжительность: 0:56:28
Источник: What.CD / dtromp
Треклист:
01. Abruzzi (6:02)
02. Ghost Spell (4:58)
03. Fleeting (8:47)
04. Blues For Nougaro (6:33)
05. Manda (3:20)
06. Murmur (6:13)
07. Threesome (4:45)
08. Paradise For Mickey (5:32)
09. Touched!! (5:08)
10. Song For Elis (5:09)

Aldo Romano - drums
Danilo Rea - piano
Remi Vignolo - double bass

Recorded at the November 21-23, 2003
 
Exact Audio Copy V0.99 prebeta 4 from 23. January 2008

EAC extraction logfile from 27. April 2009, 18:22

Aldo Romano / Threesome

Used drive : SAMSUNG DVD-ROM SD-616E Adapter: 0 ID: 0

Read mode : SecureUtilize accurate stream : YesDefeat audio cache : YesMake use of C2 pointers : No

Read offset correction : 12Overread into Lead-In and Lead-Out : NoFill up missing offset samples with silence : YesDelete leading and trailing silent blocks : NoNull samples used in CRC calculations : YesUsed interface : Native Win32 interface for Win NT & 2000Gap handling : Appended to previous track

Used output format : User Defined EncoderSelected bitrate : 128 kBit/sQuality : HighAdd ID3 tag : NoCommand line compressor : C:\Program Files\FLAC\flac.exeAdditional command line options : -8 -V -T "ARTIST=%a" -T "TITLE=%t" -T "ALBUM=%g" -T "DATE=%y" -T "TRACKNUMBER=%n" -T "GENRE=%m" -T "COMMENT=EAC FLAC -8" %s

TOC of the extracted CD

Track | Start | Length | Start sector | End sector --------------------------------------------------------- 1 | 0:00.00 | 6:01.62 | 0 | 27136 2 | 6:01.62 | 4:57.72 | 27137 | 49483 3 | 10:59.59 | 8:47.32 | 49484 | 89040 4 | 19:47.16 | 6:33.21 | 89041 | 118536 5 | 26:20.37 | 3:19.43 | 118537 | 133504 6 | 29:40.05 | 6:12.67 | 133505 | 161471 7 | 35:52.72 | 4:45.34 | 161472 | 182880 8 | 40:38.31 | 5:32.12 | 182881 | 207792 9 | 46:10.43 | 5:07.50 | 207793 | 230867 10 | 51:18.18 | 5:09.25 | 230868 | 254067

Track 1

Filename G:\DL\Aldo Romano - Threesome (2004) [FLAC]\01 - Abruzzi.wav

Pre-gap length 0:00:02.00

Peak level 99.4 % Track quality 100.0 % Test CRC 4F6F73B7 Copy CRC 4F6F73B7 Cannot be verified as accurate (confidence 1) [B5454890], AccurateRip returned [3F8A1D0B] Copy OK

Track 2

Filename G:\DL\Aldo Romano - Threesome (2004) [FLAC]\02 - Ghost Spell.wav

Pre-gap length 0:00:00.01

Peak level 99.4 % Track quality 100.0 % Test CRC F6242D64 Copy CRC F6242D64 Cannot be verified as accurate (confidence 1) [8A0D30D7], AccurateRip returned [92E68D82] Copy OK

Track 3

Filename G:\DL\Aldo Romano - Threesome (2004) [FLAC]\03 - Fleeting.wav

Peak level 99.4 % Track quality 100.0 % Test CRC 79C8DB67 Copy CRC 79C8DB67 Cannot be verified as accurate (confidence 1) [87FF6960], AccurateRip returned [F8FB2B9A] Copy OK

Track 4

Filename G:\DL\Aldo Romano - Threesome (2004) [FLAC]\04 - Blues For Nougaro.wav

Peak level 99.4 % Track quality 100.0 % Test CRC D7A6C368 Copy CRC D7A6C368 Cannot be verified as accurate (confidence 1) [20DB1FAA], AccurateRip returned [B75CAD06] Copy OK

Track 5

Filename G:\DL\Aldo Romano - Threesome (2004) [FLAC]\05 - Manda.wav

Peak level 99.4 % Track quality 99.9 % Test CRC 3A4B3C07 Copy CRC 3A4B3C07 Cannot be verified as accurate (confidence 1) [75963FAB], AccurateRip returned [FDB33197] Copy OK

Track 6

Filename G:\DL\Aldo Romano - Threesome (2004) [FLAC]\06 - Murmur.wav

Peak level 99.4 % Track quality 99.9 % Test CRC 503E37DC Copy CRC 503E37DC Cannot be verified as accurate (confidence 1) [6830D78A], AccurateRip returned [62EAD67A] Copy OK

Track 7

Filename G:\DL\Aldo Romano - Threesome (2004) [FLAC]\07 - Threesome.wav

Peak level 99.4 % Track quality 100.0 % Test CRC E6D47427 Copy CRC E6D47427 Cannot be verified as accurate (confidence 1) [EFE3EB67], AccurateRip returned [A2AEF781] Copy OK

Track 8

Filename G:\DL\Aldo Romano - Threesome (2004) [FLAC]\08 - Paradise For Mickey.wav

Peak level 99.4 % Track quality 100.0 % Test CRC 4E906756 Copy CRC 4E906756 Cannot be verified as accurate (confidence 1) [4D5BB680], AccurateRip returned [8EEB96BD] Copy OK

Track 9

Filename G:\DL\Aldo Romano - Threesome (2004) [FLAC]\09 - Touched!!.wav

Peak level 99.4 % Track quality 100.0 % Test CRC D573F42F Copy CRC D573F42F Cannot be verified as accurate (confidence 1) [6439D342], AccurateRip returned [824E51CA] Copy OK

Track 10

Filename G:\DL\Aldo Romano - Threesome (2004) [FLAC]\10 - Song For Elis.wav

Peak level 99.4 % Track quality 100.0 % Test CRC 5B53A722 Copy CRC 5B53A722 Cannot be verified as accurate (confidence 1) [C5B148AE], AccurateRip returned [824D6236] Copy OK

No tracks could be verified as accurateYou may have a different pressing from the one(s) in the database

No errors occurred

End of status report
 
REM GENRE JazzREM DATE 2004REM DISCID 830D3B0AREM COMMENT "ExactAudioCopy v0.99pb4"PERFORMER "Aldo Romano"TITLE "Threesome"FILE "01 - Abruzzi.wav" WAVE TRACK 01 AUDIO TITLE "Abruzzi" PERFORMER "Aldo Romano" INDEX 01 00:00:00 TRACK 02 AUDIO TITLE "Ghost Spell" PERFORMER "Aldo Romano" INDEX 00 06:01:61FILE "02 - Ghost Spell.wav" WAVE INDEX 01 00:00:00FILE "03 - Fleeting.wav" WAVE TRACK 03 AUDIO TITLE "Fleeting" PERFORMER "Aldo Romano" INDEX 01 00:00:00FILE "04 - Blues For Nougaro.wav" WAVE TRACK 04 AUDIO TITLE "Blues For Nougaro" PERFORMER "Aldo Romano" INDEX 01 00:00:00FILE "05 - Manda.wav" WAVE TRACK 05 AUDIO TITLE "Manda" PERFORMER "Aldo Romano" INDEX 01 00:00:00FILE "06 - Murmur.wav" WAVE TRACK 06 AUDIO TITLE "Murmur" PERFORMER "Aldo Romano" INDEX 01 00:00:00FILE "07 - Threesome.wav" WAVE TRACK 07 AUDIO TITLE "Threesome" PERFORMER "Aldo Romano" INDEX 01 00:00:00FILE "08 - Paradise For Mickey.wav" WAVE TRACK 08 AUDIO TITLE "Paradise For Mickey" PERFORMER "Aldo Romano" INDEX 01 00:00:00FILE "09 - Touched!!.wav" WAVE TRACK 09 AUDIO TITLE "Touched!!" PERFORMER "Aldo Romano" INDEX 01 00:00:00FILE "10 - Song For Elis.wav" WAVE TRACK 10 AUDIO TITLE "Song For Elis" PERFORMER "Aldo Romano" INDEX 01 00:00:00


Трекер:  [ 16-Фев-2012 16:46 ]

  

Скачать .torrent

Размер .torrent файла 17 KB


Размер: 398 MB
Хэш (hash) релиза: 2e7b636f9b083d91e346b75019fba71e51a69f00

Еще никто не оставлял запись к записи скачать торрент Aldo Romano - Threesome - 2004, FLAC . Будь первым!

!Обратная связь