Скачать через торрент музыку Howard Roberts - The Magic Band: Live at Dontes бесплатно без регистрации torrent

Если у вас наблюдаются проблемы со скриншотами, переходом по ссылками, скачиванием торрентов - проблемы в блокировщике рекламы AdBlock. #хорошегоДня!


Статистика раздачи
Размер:  417 MB   |    Зарегистрирован:  5 лет 8 месяцев   |    .torrent скачан:  30 раз   |   
Раздают:  1  
   
Загрузка...
 
Автор Сообщение

Umakiro

avatar Umakiro


Howard Roberts - The Magic Band: Live at Donte's
Жанр: Hard Bop / Soul-Jazz / Guitar / Organ
Год выпуска диска: 1995
Производитель диска: V.S.O.P. (#94 CD)
Аудио кодек: APE
Тип рипа: image+.cue
Битрейт аудио: lossless
Продолжительность: 1:12:41
Треклист:
01. All Of You (13:51)
02. Shiny Stockings (15:59)
03. All Blues (12:39)
04. Polka Dots And Moonbeams (12:35)
05. When Sunny Gets Blue (17:38)

Howard Roberts - guitar
Steve Bohannon - organ
Tom Scott - alto, tenor, soprano saxes
Chuck Berghofer - bass
John Guerin - drums

Recorded july, 1968 at Donte's in Los Angeles, CA

За релиз спасибо jack335

.
 
Exact Audio Copy V0.99 prebeta 1 from 25. May 2007

EAC extraction logfile from 15. August 2007, 10:06

HOWARD ROBERTS / THE MAGIC BAND: LIVE AT DONTE'S (1968)

Used drive : LITE-ON DVDRW LH-20A1P Adapter: 0 ID: 0

Read mode : SecureUtilize accurate stream : YesDefeat audio cache : YesMake use of C2 pointers : No

Read offset correction : 6Overread into Lead-In and Lead-Out : NoFill up missing offset samples with silence : YesDelete leading and trailing silent blocks : NoUsed interface : Installed external ASPI interface

Used output format : Monkey's Audio Lossless EncoderSelected bitrate : Normal Lossless CompressionQuality : HighAdd ID3 tag : YesCommand line compressor : C:\Program Files\Monkey's Audio\MAC.exe

TOC of the extracted CD

Track | Start | Length | Start sector | End sector --------------------------------------------------------- 1 | 0:00.00 | 13:50.52 | 0 | 62301 2 | 13:50.52 | 15:58.50 | 62302 | 134201 3 | 29:49.27 | 12:38.43 | 134202 | 191094 4 | 42:27.70 | 12:34.57 | 191095 | 247701 5 | 55:02.52 | 17:38.20 | 247702 | 327071

Range status and errors

Selected range

Filename E:\Image files\Guitar Image-26\HOWARD ROBERTS - THE MAGIC BAND LIVE AT DONTE'S (1968)\HOWARD ROBERTS - THE MAGIC BAND LIVE AT DONTE'S (1968).wav

Peak level 100.0 % Range quality 100.0 % Copy CRC 14967D09 Copy OK

No errors occurred

End of status report


Трекер:  [ 16-Фев-2012 16:46 ]

  

Скачать .torrent

Размер .torrent файла 17 KB


Размер: 417 MB
Хэш (hash) релиза: 22470f3b18204a67e251f8b7dfd19dd86fa9a37c

Еще никто не оставлял запись к записи скачать торрент Howard Roberts - The Magic Band: Live at Dontes . Будь первым!

!Обратная связь