Скачать через торрент музыку Eric Dolphy - The Complete Prestige Recordings бесплатно без регистрации torrent

Если у вас наблюдаются проблемы со скриншотами, переходом по ссылками, скачиванием торрентов - проблемы в блокировщике рекламы AdBlock. #хорошегоДня!


Статистика раздачи
Размер:  4.2 GB   |    Зарегистрирован:  5 лет 8 месяцев   |    .torrent скачан:  34 раза   |   
Раздают:  1  
   
Загрузка...
 
Автор Сообщение

Umakiro

avatar Umakiro


Eric Dolphy - The Complete Prestige Recordings
Жанр: Hard Bop / Post-Bop / Free-Jazz / Alto Sax / Flute / Clarinet
Год выпуска диска: 1995
Производитель диска: Prestige (PRCD-4418-2)
Аудио кодек: FLAC
Тип рипа: tracks+.cue
Битрейт аудио: lossless
Продолжительность: 11:19:40
Эрил Аллан Долфи родился в Лос-Анджелесе, штат Калифорния, 20 июня 1928 года.
Эрик Долфи был настоящим самородком со своим собственным, отличительным стилем игры на альте, флейте, и бас-кларнете. Хотя его музыка попала в категорию авангарда, он не отказывался от аккордных импровизаций в целом (хотя его произведения всегда были достаточно абстрактны). Когда большинство фри-джазовых музыкантов исполняли очень серьезную музыку, соло-партии Долфи всегда вызывали у зрителей море впечатлений. В своих импровизациях он пользовался очень широкими интервалами, множеством немузыкальных речевых звуков, следуя только своей логике. Альт всегда был его главным и излюбленным инструментом, но именно Долфи стал первым флейтистом, играющем в жанре бибопа, и под его влиянеем бас-кларнет был введен в джазовую музыку как сольный инструмент. Он также был одним из первых, кто играл соло-партии на валторне.
В конце 40-х Эрик Долфи записывался с Роем Портером и его оркестром в Лос-Анджелесе, до службы в армии, а в последующие годы играл в клубах, пока не присоединился к «Chico Hamilton Quintet» в 1958 году. В 1959 году он обосновался в Нью-Йорке и скоро стал участником «Тhe Charles Mingus Quartet». В начале 60-х у Эрика Долфи начались трудности с работой из-за его передового, не всеми принимаемого стиля игры.
В 1960-61 годах он выступает довольно редко, но его игру можно услышать в нью-йоркском джазовом кафе «Five Spot» вместе с трубачом Буккером Литллом, Орнеттой Колман и в нескольких европейских концертах.
В конце 1961 года Долфи стал участником группы «John Coltrane Quintet», чью игру консервативные критики оценивали как «антиджаз» из-за долгих и очень вольных соло-партий.
В течение 1962-1963 годов Долфи играл в Оркестре США, и практически забросил свою группу. В 1964 году он записал свою классическую композицию «Out to Lunch for Blue Note»и поехал в тур по Европе с «Тhe Charles Mingus Sextet».
Осев в Европе и дав несколько разовых концертов, Эрик Долфи в возрасте тридцати шести лет внезапно скончался в Берлине от диабетической комы, 29 июня 1964 года.
Практически все композиции Эрика Долфи опубликованы. Помимо этого, Долфи можно заметить в фильме с Джоном Колтрейном и Чарльзом Мингусом, выпущенном Shanachie Records.
Треклист:
01. G.W. (7:59)
02. On Green Dolphin Street (5:46)
03. Les (5:14)
04. 245 (6:52)
05. Glad To Be Unhappy (5:30)
06. Miss Toni (5:42)
07. April Fool (4:08)
08. G.W. (alternate take I) (12:12)
09. 245 (alternate take I) (8:11)
10. Screamin' the Blues (11:01)
11. March On, March On (5:00)
01. The Drive (5:50)
02. The Meetin' (6:44)
03. Three Seconds (6:27)
04. Alto-Itis (5:01)
05. Lautir (4:06)
06. Curtsy (5:54)
07. Geo's Tune (7:15)
08. They All Laughed (5:09)
09. Head Shakin' (10:48)
10. Dianna (9:09)
11. Out There (6:54)
01. Serene (7:02)
02. The Baron (2:58)
03. Eclipse (2:46)
04. 17 West (4:49)
05. Sketch of Melba (4:39)
06. Feather (5:02)
07. Caribe (10:08)
08. Blues in 6/8 (5:44)
09. First Bass Line (4:07)
10. Mambo Ricci (6:58)
11. Spring Is Here (5:09)
12. Sunday Go Meetin' (5:50)
13. Trane Whistle (6:19)
14. Whole Nelson (3:32)
01. You Are Too Beautiful (5:12)
02. The Stolen Moment (7:53)
03. Walk Away (5:26)
04. Jaws (4:38)
05. Mrs. Parker of K.C. (Bird's Mother) (8:03)
06. Ode to Charlie Parker (8:44)
07. Far Cry (3:55)
08. Miss Ann (4:18)
09. Left Alone (6:43)
10. Tenderly (4:21)
11. It's Magic (5:42)
12. Serene (6:40)
13. Images (5:45)
01. Six And Four (7:17)
02. Mama Lou (5:04)
03. Ralph's New Blues (9:56)
04. Straight Ahead (5:35)
05. 111-44 (3:27)
06. Rally (5:43)
07. Bass Duet (5:44)
08. Softly, As In A Morning Sunrise (7:40)
09. Where? (6:02)
10. Yes, Indeed (5:52)
11. Saucer Eyes (5:09)
12. Status Seeking (8:52)
01. Duquility (4:10)
02. Thirteen (4:43)
03. We Diddit (4:25)
04. Warm Canto (5:39)
05. Warp and Woof (5:37)
06. Fire Waltz (7:59)
07. Like Someone in Love (19:42)
08. God Bless the Child (5:34)
09. Aggression (16:45)
01. Fire Waltz (13:25)
02. Bee Vamp (12:22)
03. The Prophet (21:15)
04. Booker's Waltz (14:36)
05. Status Seeking (13:20)
01. Number Eight (Potsa Lotsa) (15:34)
02. Bee Vamp (alternate) (10:06)
03. Don't Blame Me (11:09)
04. When Lights Are Low (12:11)
05. Don't Blame Me (alternate) (11:45)
06. Les (5:55)
07. The Way You Look Tonight (9:09)
01. Woody'N You (10:14)
02. Laura (13:12)
03. Glad To Be Unhappy (6:20)
04. God Bless The Child (7:08)
05. In The Blues (takes 1-3) (17:00)
06. Hi-Fly (13:28)
07. Oleo (7:23)

 
Exact Audio Copy V0.99 prebeta 5 from 4. May 2009

EAC extraction logfile from 2. August 2010, 19:23

Eric Dolphy / The Complete Prestige Recordings (Disc1)

Used drive : HL-DT-STDVDRAM GSA-H10N Adapter: 1 ID: 0

Read mode : SecureUtilize accurate stream : YesDefeat audio cache : YesMake use of C2 pointers : No

Read offset correction : 667Overread into Lead-In and Lead-Out : NoFill up missing offset samples with silence : YesDelete leading and trailing silent blocks : NoNull samples used in CRC calculations : YesUsed interface : Native Win32 interface for Win NT & 2000Gap handling : Appended to previous track

Used output format : User Defined EncoderSelected bitrate : 768 kBit/sQuality : HighAdd ID3 tag : NoCommand line compressor : C:\Program Files (x86)\Exact Audio Copy\FLAC\FLAC.EXEAdditional command line options : -8 -V -T "ARTIST=%a" -T "TITLE=%t" -T "ALBUM=%g" -T "DATE=%y" -T "TRACKNUMBER=%n" -T "GENRE=%m" -T "COMMENT=Encoded by EAC 0.99pb5 FLAC -8" %s

TOC of the extracted CD

Track | Start | Length | Start sector | End sector --------------------------------------------------------- 1 | 0:00.00 | 7:58.62 | 0 | 35911 2 | 7:58.62 | 5:46.02 | 35912 | 61863 3 | 13:44.64 | 5:14.31 | 61864 | 85444 4 | 18:59.20 | 6:51.72 | 85445 | 116341 5 | 25:51.17 | 5:29.38 | 116342 | 141054 6 | 31:20.55 | 5:42.35 | 141055 | 166739 7 | 37:03.15 | 4:08.10 | 166740 | 185349 8 | 41:11.25 | 12:12.05 | 185350 | 240254 9 | 53:23.30 | 8:11.05 | 240255 | 277084 10 | 61:34.35 | 11:00.65 | 277085 | 326649 11 | 72:35.25 | 4:59.57 | 326650 | 349131

Track 1

Filename D:\EAC Rip\01 - G.W..wav

Pre-gap length 0:00:02.00

Peak level 83.7 % Track quality 99.9 % Test CRC 73A7EA88 Copy CRC 73A7EA88 Accurately ripped (confidence 6) [0E4EED34] Copy OK

Track 2

Filename D:\EAC Rip\02 - On Green Dolphin Street.wav

Pre-gap length 0:00:01.12

Peak level 78.8 % Track quality 99.9 % Test CRC 2CE6147F Copy CRC 2CE6147F Accurately ripped (confidence 7) [A232BF35] Copy OK

Track 3

Filename D:\EAC Rip\03 - Les.wav

Pre-gap length 0:00:01.47

Peak level 82.3 % Track quality 100.0 % Test CRC B3A1E647 Copy CRC B3A1E647 Accurately ripped (confidence 6) [AA500DD1] Copy OK

Track 4

Filename D:\EAC Rip\04 - 245.wav

Pre-gap length 0:00:01.43

Peak level 83.9 % Track quality 100.0 % Test CRC 38A9FF0C Copy CRC 38A9FF0C Accurately ripped (confidence 8) [369C56AA] Copy OK

Track 5

Filename D:\EAC Rip\05 - Glad To Be Unhappy.wav

Pre-gap length 0:00:02.00

Peak level 60.7 % Track quality 100.0 % Test CRC C28D11CB Copy CRC C28D11CB Accurately ripped (confidence 7) [BC16C605] Copy OK

Track 6

Filename D:\EAC Rip\06 - Miss Toni.wav

Pre-gap length 0:00:01.40

Peak level 79.1 % Track quality 100.0 % Test CRC BE585E44 Copy CRC BE585E44 Accurately ripped (confidence 8) [3C79C8F3] Copy OK

Track 7

Filename D:\EAC Rip\07 - April Fool.wav

Pre-gap length 0:00:02.45

Peak level 79.7 % Track quality 100.0 % Test CRC 8B3700EA Copy CRC 8B3700EA Accurately ripped (confidence 8) [3B8877BE] Copy OK

Track 8

Filename D:\EAC Rip\08 - G.W. (alternate take I).wav

Pre-gap length 0:00:00.45

Peak level 82.9 % Track quality 100.0 % Test CRC 65D3A37D Copy CRC 65D3A37D Accurately ripped (confidence 8) [B479DDC1] Copy OK

Track 9

Filename D:\EAC Rip\09 - 245 (alternate take I).wav

Pre-gap length 0:00:02.25

Peak level 77.7 % Track quality 100.0 % Test CRC 69C44E3E Copy CRC 69C44E3E Accurately ripped (confidence 8) [BE1BE6AA] Copy OK

Track 10

Filename D:\EAC Rip\10 - Screamin' the Blues.wav

Pre-gap length 0:00:01.45

Peak level 78.3 % Track quality 100.0 % Test CRC B0E356DE Copy CRC B0E356DE Accurately ripped (confidence 8) [08C9BD3B] Copy OK

Track 11

Filename D:\EAC Rip\11 - March On, March On.wav

Pre-gap length 0:00:02.15

Peak level 77.1 % Track quality 100.0 % Test CRC 0FFD5D73 Copy CRC 0FFD5D73 Accurately ripped (confidence 8) [42FDD9DE] Copy OK

All tracks accurately ripped

No errors occurred

End of status report
 
Exact Audio Copy V0.99 prebeta 5 from 4. May 2009

EAC extraction logfile from 2. August 2010, 19:55

Eric Dolphy / The Complete Prestige Recordings (Disc2)

Used drive : HL-DT-STDVDRAM GSA-H10N Adapter: 1 ID: 0

Read mode : SecureUtilize accurate stream : YesDefeat audio cache : YesMake use of C2 pointers : No

Read offset correction : 667Overread into Lead-In and Lead-Out : NoFill up missing offset samples with silence : YesDelete leading and trailing silent blocks : NoNull samples used in CRC calculations : YesUsed interface : Native Win32 interface for Win NT & 2000Gap handling : Appended to previous track

Used output format : User Defined EncoderSelected bitrate : 768 kBit/sQuality : HighAdd ID3 tag : NoCommand line compressor : C:\Program Files (x86)\Exact Audio Copy\FLAC\FLAC.EXEAdditional command line options : -8 -V -T "ARTIST=%a" -T "TITLE=%t" -T "ALBUM=%g" -T "DATE=%y" -T "TRACKNUMBER=%n" -T "GENRE=%m" -T "COMMENT=Encoded by EAC 0.99pb5 FLAC -8" %s

TOC of the extracted CD

Track | Start | Length | Start sector | End sector --------------------------------------------------------- 1 | 0:00.00 | 5:49.73 | 0 | 26247 2 | 5:49.73 | 6:44.20 | 26248 | 56567 3 | 12:34.18 | 6:26.42 | 56568 | 85559 4 | 19:00.60 | 5:00.50 | 85560 | 108109 5 | 24:01.35 | 4:05.60 | 108110 | 126544 6 | 28:07.20 | 5:53.53 | 126545 | 153072 7 | 34:00.73 | 7:14.67 | 153073 | 185689 8 | 41:15.65 | 5:09.10 | 185690 | 208874 9 | 46:25.00 | 10:48.25 | 208875 | 257499 10 | 57:13.25 | 9:08.40 | 257500 | 298639 11 | 66:21.65 | 6:53.38 | 298640 | 329652

Track 1

Filename D:\EAC Rip\01 - The Drive.wav

Pre-gap length 0:00:02.00

Peak level 99.5 % Track quality 99.9 % Test CRC EDA81FF2 Copy CRC EDA81FF2 Accurately ripped (confidence 8) [2FB61EB4] Copy OK

Track 2

Filename D:\EAC Rip\02 - The Meetin'.wav

Pre-gap length 0:00:01.25

Peak level 96.1 % Track quality 100.0 % Test CRC BB20561C Copy CRC BB20561C Accurately ripped (confidence 8) [AF1EB69E] Copy OK

Track 3

Filename D:\EAC Rip\03 - Three Seconds.wav

Pre-gap length 0:00:01.55

Peak level 98.8 % Track quality 100.0 % Test CRC C1B90859 Copy CRC C1B90859 Accurately ripped (confidence 8) [4EE1B9D7] Copy OK

Track 4

Filename D:\EAC Rip\04 - Alto-Itis.wav

Pre-gap length 0:00:02.50

Peak level 100.0 % Track quality 100.0 % Test CRC 1E74335A Copy CRC 1E74335A Accurately ripped (confidence 8) [F699E715] Copy OK

Track 5

Filename D:\EAC Rip\05 - Lautir.wav

Pre-gap length 0:00:01.57

Peak level 92.0 % Track quality 100.0 % Test CRC A0704DB9 Copy CRC A0704DB9 Accurately ripped (confidence 8) [E80E0007] Copy OK

Track 6

Filename D:\EAC Rip\06 - Curtsy.wav

Pre-gap length 0:00:02.10

Peak level 96.8 % Track quality 100.0 % Test CRC B9E82EF0 Copy CRC B9E82EF0 Accurately ripped (confidence 8) [F7E8FAE4] Copy OK

Track 7

Filename D:\EAC Rip\07 - Geo's Tune.wav

Pre-gap length 0:00:02.10

Peak level 85.8 % Track quality 100.0 % Test CRC 80FE3BCE Copy CRC 80FE3BCE Accurately ripped (confidence 8) [DDA316F0] Copy OK

Track 8

Filename D:\EAC Rip\08 - They All Laughed.wav

Pre-gap length 0:00:01.47

Peak level 98.6 % Track quality 99.9 % Test CRC BBAABD4F Copy CRC BBAABD4F Accurately ripped (confidence 8) [837F3162] Copy OK

Track 9

Filename D:\EAC Rip\09 - Head Shakin'.wav

Pre-gap length 0:00:01.22

Peak level 80.5 % Track quality 100.0 % Test CRC C4F208F8 Copy CRC C4F208F8 Accurately ripped (confidence 8) [087DD51E] Copy OK

Track 10

Filename D:\EAC Rip\10 - Dianna.wav

Pre-gap length 0:00:02.30

Peak level 94.2 % Track quality 100.0 % Test CRC 4B1FCFFD Copy CRC 4B1FCFFD Accurately ripped (confidence 7) [22D1DE8A] Copy OK

Track 11

Filename D:\EAC Rip\11 - Out There.wav

Pre-gap length 0:00:01.27

Peak level 78.6 % Track quality 100.0 % Test CRC 3B67C7AE Copy CRC 3B67C7AE Accurately ripped (confidence 8) [DFBF7FBE] Copy OK

All tracks accurately ripped

No errors occurred

End of status report
 
Exact Audio Copy V0.99 prebeta 5 from 4. May 2009

EAC extraction logfile from 2. August 2010, 21:20

Eric Dolphy / The Complete Prestige Recordings (Disc3)

Used drive : HL-DT-STDVDRAM GSA-H10N Adapter: 1 ID: 0

Read mode : SecureUtilize accurate stream : YesDefeat audio cache : YesMake use of C2 pointers : No

Read offset correction : 667Overread into Lead-In and Lead-Out : NoFill up missing offset samples with silence : YesDelete leading and trailing silent blocks : NoNull samples used in CRC calculations : YesUsed interface : Native Win32 interface for Win NT & 2000Gap handling : Appended to previous track

Used output format : User Defined EncoderSelected bitrate : 768 kBit/sQuality : HighAdd ID3 tag : NoCommand line compressor : C:\Program Files (x86)\Exact Audio Copy\FLAC\FLAC.EXEAdditional command line options : -8 -V -T "ARTIST=%a" -T "TITLE=%t" -T "ALBUM=%g" -T "DATE=%y" -T "TRACKNUMBER=%n" -T "GENRE=%m" -T "COMMENT=Encoded by EAC 0.99pb5 FLAC -8" %s

TOC of the extracted CD

Track | Start | Length | Start sector | End sector --------------------------------------------------------- 1 | 0:00.00 | 7:01.62 | 0 | 31636 2 | 7:01.62 | 2:57.55 | 31637 | 44966 3 | 9:59.42 | 2:45.43 | 44967 | 57384 4 | 12:45.10 | 4:49.37 | 57385 | 79096 5 | 17:34.47 | 4:39.13 | 79097 | 100034 6 | 22:13.60 | 5:02.15 | 100035 | 122699 7 | 27:16.00 | 10:08.37 | 122700 | 168336 8 | 37:24.37 | 5:44.23 | 168337 | 194159 9 | 43:08.60 | 4:06.57 | 194160 | 212666 10 | 47:15.42 | 6:57.58 | 212667 | 243999 11 | 54:13.25 | 5:08.47 | 244000 | 267146 12 | 59:21.72 | 5:50.20 | 267147 | 293416 13 | 65:12.17 | 6:19.33 | 293417 | 321874 14 | 71:31.50 | 3:32.30 | 321875 | 337804

Track 1

Filename D:\EAC Rip\01 - Serene.wav

Pre-gap length 0:00:02.00

Peak level 95.5 % Track quality 100.0 % Test CRC 3FD3BA0F Copy CRC 3FD3BA0F Accurately ripped (confidence 9) [E4A62F8F] Copy OK

Track 2

Filename D:\EAC Rip\02 - The Baron.wav

Pre-gap length 0:00:02.02

Peak level 89.7 % Track quality 100.0 % Test CRC 0E26D8ED Copy CRC 0E26D8ED Accurately ripped (confidence 9) [D65D25F7] Copy OK

Track 3

Filename D:\EAC Rip\03 - Eclipse.wav

Pre-gap length 0:00:02.00

Peak level 76.0 % Track quality 100.0 % Test CRC 69005D03 Copy CRC 69005D03 Accurately ripped (confidence 9) [FED4477F] Copy OK

Track 4

Filename D:\EAC Rip\04 - 17 West.wav

Pre-gap length 0:00:01.53

Peak level 89.3 % Track quality 100.0 % Test CRC 4759A72E Copy CRC 4759A72E Accurately ripped (confidence 9) [4E8B707F] Copy OK

Track 5

Filename D:\EAC Rip\05 - Sketch of Melba.wav

Pre-gap length 0:00:01.22

Peak level 69.1 % Track quality 100.0 % Test CRC 4A0A8A8E Copy CRC 4A0A8A8E Accurately ripped (confidence 9) [31D9B4B4] Copy OK

Track 6

Filename D:\EAC Rip\06 - Feather.wav

Pre-gap length 0:00:01.35

Peak level 81.9 % Track quality 100.0 % Test CRC A748472B Copy CRC A748472B Accurately ripped (confidence 9) [2A84E533] Copy OK

Track 7

Filename D:\EAC Rip\07 - Caribe.wav

Pre-gap length 0:00:02.28

Peak level 85.1 % Track quality 100.0 % Test CRC 558194E9 Copy CRC 558194E9 Accurately ripped (confidence 9) [A55CAC33] Copy OK

Track 8

Filename D:\EAC Rip\08 - Blues in 6,8.wav

Pre-gap length 0:00:01.67

Peak level 84.5 % Track quality 100.0 % Test CRC 05D9DC14 Copy CRC 05D9DC14 Accurately ripped (confidence 8) [3C34B67B] Copy OK

Track 9

Filename D:\EAC Rip\09 - First Bass Line.wav

Pre-gap length 0:00:00.26

Peak level 71.7 % Track quality 100.0 % Test CRC 0388458F Copy CRC 0388458F Accurately ripped (confidence 9) [E95F7482] Copy OK

Track 10

Filename D:\EAC Rip\10 - Mambo Ricci.wav

Pre-gap length 0:00:01.08

Peak level 77.6 % Track quality 100.0 % Test CRC F7A32DE4 Copy CRC F7A32DE4 Accurately ripped (confidence 9) [B316D3DF] Copy OK

Track 11

Filename D:\EAC Rip\11 - Spring Is Here.wav

Pre-gap length 0:00:02.63

Peak level 80.2 % Track quality 100.0 % Test CRC CB3BB392 Copy CRC CB3BB392 Accurately ripped (confidence 8) [B840C70C] Copy OK

Track 12

Filename D:\EAC Rip\12 - Sunday Go Meetin'.wav

Pre-gap length 0:00:01.67

Peak level 75.6 % Track quality 100.0 % Test CRC 48141BE5 Copy CRC 48141BE5 Accurately ripped (confidence 8) [44D8CB76] Copy OK

Track 13

Filename D:\EAC Rip\13 - Trane Whistle.wav

Pre-gap length 0:00:00.30

Peak level 75.3 % Track quality 100.0 % Test CRC 0387304A Copy CRC 0387304A Accurately ripped (confidence 7) [2413B48E] Copy OK

Track 14

Filename D:\EAC Rip\14 - Whole Nelson.wav

Pre-gap length 0:00:02.70

Peak level 79.9 % Track quality 100.0 % Test CRC 35F1A43C Copy CRC 35F1A43C Accurately ripped (confidence 7) [9E2AA849] Copy OK

All tracks accurately ripped

No errors occurred

End of status report
 
Exact Audio Copy V0.99 prebeta 5 from 4. May 2009

EAC extraction logfile from 2. August 2010, 23:25

Eric Dolphy / The Complete Prestige Recordings (Disc4)

Used drive : HL-DT-STDVDRAM GSA-H10N Adapter: 1 ID: 0

Read mode : SecureUtilize accurate stream : YesDefeat audio cache : YesMake use of C2 pointers : No

Read offset correction : 667Overread into Lead-In and Lead-Out : NoFill up missing offset samples with silence : YesDelete leading and trailing silent blocks : NoNull samples used in CRC calculations : YesUsed interface : Native Win32 interface for Win NT & 2000Gap handling : Appended to previous track

Used output format : User Defined EncoderSelected bitrate : 768 kBit/sQuality : HighAdd ID3 tag : NoCommand line compressor : C:\Program Files (x86)\Exact Audio Copy\FLAC\FLAC.EXEAdditional command line options : -8 -V -T "ARTIST=%a" -T "TITLE=%t" -T "ALBUM=%g" -T "DATE=%y" -T "TRACKNUMBER=%n" -T "GENRE=%m" -T "COMMENT=Encoded by EAC 0.99pb5 FLAC -8" %s

TOC of the extracted CD

Track | Start | Length | Start sector | End sector --------------------------------------------------------- 1 | 0:00.00 | 5:12.10 | 0 | 23409 2 | 5:12.10 | 7:53.05 | 23410 | 58889 3 | 13:05.15 | 5:26.37 | 58890 | 83376 4 | 18:31.52 | 4:37.45 | 83377 | 104196 5 | 23:09.22 | 8:02.38 | 104197 | 140384 6 | 31:11.60 | 8:44.00 | 140385 | 179684 7 | 39:55.60 | 3:54.60 | 179685 | 197294 8 | 43:50.45 | 4:18.12 | 197295 | 216656 9 | 48:08.57 | 6:42.45 | 216657 | 246851 10 | 54:51.27 | 4:20.48 | 246852 | 266399 11 | 59:12.00 | 5:41.62 | 266400 | 292036 12 | 64:53.62 | 6:39.40 | 292037 | 322001 13 | 71:33.27 | 5:45.30 | 322002 | 347906

Track 1

Filename D:\EAC Rip\01 - You Are Too Beautiful.wav

Pre-gap length 0:00:02.00

Peak level 77.3 % Track quality 99.9 % Test CRC F2CD2701 Copy CRC F2CD2701 Accurately ripped (confidence 8) [0CDC1610] Copy OK

Track 2

Filename D:\EAC Rip\02 - The Stolen Moment.wav

Pre-gap length 0:00:01.20

Peak level 79.4 % Track quality 100.0 % Test CRC F4406068 Copy CRC F4406068 Accurately ripped (confidence 8) [84827D77] Copy OK

Track 3

Filename D:\EAC Rip\03 - Walk Away.wav

Pre-gap length 0:00:02.03

Peak level 68.0 % Track quality 100.0 % Test CRC 9A464661 Copy CRC 9A464661 Accurately ripped (confidence 8) [01108BD6] Copy OK

Track 4

Filename D:\EAC Rip\04 - Jaws.wav

Pre-gap length 0:00:01.45

Peak level 80.0 % Track quality 99.9 % Test CRC EA789F17 Copy CRC EA789F17 Accurately ripped (confidence 8) [9546AAF0] Copy OK

Track 5

Filename D:\EAC Rip\05 - Mrs. Parker of K.C. (Bird's Mother).wav

Pre-gap length 0:00:01.37

Peak level 83.2 % Track quality 100.0 % Test CRC C86932EA Copy CRC C86932EA Accurately ripped (confidence 8) [FCB62834] Copy OK

Track 6

Filename D:\EAC Rip\06 - Ode to Charlie Parker.wav

Pre-gap length 0:00:01.25

Peak level 83.1 % Track quality 99.9 % Test CRC 7DE59295 Copy CRC 7DE59295 Accurately ripped (confidence 8) [0ED9EEFC] Copy OK

Track 7

Filename D:\EAC Rip\07 - Far Cry.wav

Pre-gap length 0:00:01.38

Peak level 77.4 % Track quality 100.0 % Test CRC 1A6DF04B Copy CRC 1A6DF04B Accurately ripped (confidence 8) [780013A8] Copy OK

Track 8

Filename D:\EAC Rip\08 - Miss Ann.wav

Pre-gap length 0:00:01.53

Peak level 90.0 % Track quality 100.0 % Test CRC 1F31FDD9 Copy CRC 1F31FDD9 Accurately ripped (confidence 8) [0AB4F63F] Copy OK

Track 9

Filename D:\EAC Rip\09 - Left Alone.wav

Pre-gap length 0:00:02.15

Peak level 75.5 % Track quality 100.0 % Test CRC C577C94B Copy CRC C577C94B Accurately ripped (confidence 8) [CF8C77DE] Copy OK

Track 10

Filename D:\EAC Rip\10 - Tenderly.wav

Pre-gap length 0:00:02.40

Peak level 51.6 % Track quality 99.9 % Test CRC 367F8DA8 Copy CRC 367F8DA8 Accurately ripped (confidence 8) [244BFEDD] Copy OK

Track 11

Filename D:\EAC Rip\11 - It's Magic.wav

Pre-gap length 0:00:02.48

Peak level 71.4 % Track quality 100.0 % Test CRC B50030A4 Copy CRC B50030A4 Accurately ripped (confidence 8) [372A3731] Copy OK

Track 12

Filename D:\EAC Rip\12 - Serene.wav

Pre-gap length 0:00:02.20

Peak level 71.1 % Track quality 100.0 % Test CRC B1F73D71 Copy CRC B1F73D71 Accurately ripped (confidence 8) [4D2EF54B] Copy OK

Track 13

Filename D:\EAC Rip\13 - Images.wav

Pre-gap length 0:00:01.70

Peak level 83.3 % Track quality 100.0 % Test CRC FAE7ED18 Copy CRC FAE7ED18 Accurately ripped (confidence 8) [6072A734] Copy OK

All tracks accurately ripped

No errors occurred

End of status report
 
Exact Audio Copy V0.99 prebeta 5 from 4. May 2009

EAC extraction logfile from 3. August 2010, 0:09

Eric Dolphy / The Complete Prestige Recordings (Disc5)

Used drive : HL-DT-STDVDRAM GSA-H10N Adapter: 1 ID: 0

Read mode : SecureUtilize accurate stream : YesDefeat audio cache : YesMake use of C2 pointers : No

Read offset correction : 667Overread into Lead-In and Lead-Out : NoFill up missing offset samples with silence : YesDelete leading and trailing silent blocks : NoNull samples used in CRC calculations : YesUsed interface : Native Win32 interface for Win NT & 2000Gap handling : Appended to previous track

Used output format : User Defined EncoderSelected bitrate : 768 kBit/sQuality : HighAdd ID3 tag : NoCommand line compressor : C:\Program Files (x86)\Exact Audio Copy\FLAC\FLAC.EXEAdditional command line options : -8 -V -T "ARTIST=%a" -T "TITLE=%t" -T "ALBUM=%g" -T "DATE=%y" -T "TRACKNUMBER=%n" -T "GENRE=%m" -T "COMMENT=Encoded by EAC 0.99pb5 FLAC -8" %s

TOC of the extracted CD

Track | Start | Length | Start sector | End sector --------------------------------------------------------- 1 | 0:00.00 | 7:17.30 | 0 | 32804 2 | 7:17.30 | 5:04.30 | 32805 | 55634 3 | 12:21.60 | 9:56.20 | 55635 | 100354 4 | 22:18.05 | 5:34.72 | 100355 | 125476 5 | 27:53.02 | 3:27.35 | 125477 | 141036 6 | 31:20.37 | 5:42.70 | 141037 | 166756 7 | 37:03.32 | 5:44.28 | 166757 | 192584 8 | 42:47.60 | 7:39.55 | 192585 | 227064 9 | 50:27.40 | 6:01.42 | 227065 | 254181 10 | 56:29.07 | 5:51.48 | 254182 | 280554 11 | 62:20.55 | 5:09.05 | 280555 | 303734 12 | 67:29.60 | 8:51.57 | 303735 | 343616

Track 1

Filename D:\EAC Rip\01 - Six And Four.wav

Pre-gap length 0:00:02.00

Peak level 100.0 % Track quality 100.0 % Test CRC 58816FDD Copy CRC 58816FDD Accurately ripped (confidence 7) [C0836E67] Copy OK

Track 2

Filename D:\EAC Rip\02 - Mama Lou.wav

Pre-gap length 0:00:02.00

Peak level 98.9 % Track quality 100.0 % Test CRC 63CC3192 Copy CRC 63CC3192 Accurately ripped (confidence 7) [4CE2797E] Copy OK

Track 3

Filename D:\EAC Rip\03 - Ralph's New Blues.wav

Pre-gap length 0:00:02.68

Peak level 89.2 % Track quality 100.0 % Test CRC 2A9EEDAD Copy CRC 2A9EEDAD Accurately ripped (confidence 7) [5C33315C] Copy OK

Track 4

Filename D:\EAC Rip\04 - Straight Ahead.wav

Pre-gap length 0:00:02.58

Peak level 91.2 % Track quality 100.0 % Test CRC 167473BB Copy CRC 167473BB Accurately ripped (confidence 7) [4EF1A59C] Copy OK

Track 5

Filename D:\EAC Rip\05 - 111-44.wav

Pre-gap length 0:00:02.72

Peak level 85.1 % Track quality 100.0 % Test CRC 7E5A5F58 Copy CRC 7E5A5F58 Accurately ripped (confidence 7) [02F8893E] Copy OK

Track 6

Filename D:\EAC Rip\06 - Rally.wav

Pre-gap length 0:00:02.17

Peak level 89.6 % Track quality 100.0 % Test CRC 1ABD68A2 Copy CRC 1ABD68A2 Accurately ripped (confidence 7) [D70B38F7] Copy OK

Track 7

Filename D:\EAC Rip\07 - Bass Duet.wav

Pre-gap length 0:00:02.73

Peak level 100.0 % Track quality 100.0 % Test CRC 152C40F1 Copy CRC 152C40F1 Accurately ripped (confidence 7) [7E4FE5E4] Copy OK

Track 8

Filename D:\EAC Rip\08 - Softly, As In A Morning Sunrise.wav

Pre-gap length 0:00:02.38

Peak level 96.2 % Track quality 100.0 % Test CRC 57B4716B Copy CRC 57B4716B Accurately ripped (confidence 7) [704C5E5B] Copy OK

Track 9

Filename D:\EAC Rip\09 - Where .wav

Pre-gap length 0:00:02.73

Peak level 89.3 % Track quality 100.0 % Test CRC D99C6CE1 Copy CRC D99C6CE1 Accurately ripped (confidence 7) [6F5C398D] Copy OK

Track 10

Filename D:\EAC Rip\10 - Yes, Indeed.wav

Pre-gap length 0:00:03.65

Peak level 100.0 % Track quality 99.9 % Test CRC B46C754B Copy CRC B46C754B Accurately ripped (confidence 6) [90F45B84] Copy OK

Track 11

Filename D:\EAC Rip\11 - Saucer Eyes.wav

Pre-gap length 0:00:02.43

Peak level 100.0 % Track quality 100.0 % Test CRC 7F1C4FE6 Copy CRC 7F1C4FE6 Accurately ripped (confidence 7) [3F7596EC] Copy OK

Track 12

Filename D:\EAC Rip\12 - Status Seeking.wav

Pre-gap length 0:00:02.18

Peak level 100.0 % Track quality 100.0 % Test CRC 728C06E2 Copy CRC 728C06E2 Accurately ripped (confidence 7) [3373AC53] Copy OK

All tracks accurately ripped

No errors occurred

End of status report
 
Exact Audio Copy V0.99 prebeta 5 from 4. May 2009

EAC extraction logfile from 3. August 2010, 1:30

Eric Dolphy / The Complete Prestige Recordings (Disc6)

Used drive : HL-DT-STDVDRAM GSA-H10N Adapter: 1 ID: 0

Read mode : SecureUtilize accurate stream : YesDefeat audio cache : YesMake use of C2 pointers : No

Read offset correction : 667Overread into Lead-In and Lead-Out : NoFill up missing offset samples with silence : YesDelete leading and trailing silent blocks : NoNull samples used in CRC calculations : YesUsed interface : Native Win32 interface for Win NT & 2000Gap handling : Appended to previous track

Used output format : User Defined EncoderSelected bitrate : 768 kBit/sQuality : HighAdd ID3 tag : NoCommand line compressor : C:\Program Files (x86)\Exact Audio Copy\FLAC\FLAC.EXEAdditional command line options : -8 -V -T "ARTIST=%a" -T "TITLE=%t" -T "ALBUM=%g" -T "DATE=%y" -T "TRACKNUMBER=%n" -T "GENRE=%m" -T "COMMENT=Encoded by EAC 0.99pb5 FLAC -8" %s

TOC of the extracted CD

Track | Start | Length | Start sector | End sector --------------------------------------------------------- 1 | 0:00.00 | 4:10.10 | 0 | 18759 2 | 4:10.10 | 4:43.37 | 18760 | 40021 3 | 8:53.47 | 4:25.17 | 40022 | 59913 4 | 13:18.64 | 5:39.23 | 59914 | 85361 5 | 18:58.12 | 5:36.68 | 85362 | 110629 6 | 24:35.05 | 7:58.42 | 110630 | 146521 7 | 32:33.47 | 19:42.10 | 146522 | 235181 8 | 52:15.57 | 5:34.30 | 235182 | 260261 9 | 57:50.12 | 16:44.48 | 260262 | 335609

Track 1

Filename D:\EAC Rip\01 - Duquility.wav

Pre-gap length 0:00:02.00

Peak level 89.7 % Track quality 100.0 % Test CRC C3B4253E Copy CRC C3B4253E Accurately ripped (confidence 7) [9FA5ABC1] Copy OK

Track 2

Filename D:\EAC Rip\02 - Thirteen.wav

Pre-gap length 0:00:01.53

Peak level 100.0 % Track quality 100.0 % Test CRC C9E6956A Copy CRC C9E6956A Accurately ripped (confidence 7) [35875A92] Copy OK

Track 3

Filename D:\EAC Rip\03 - We Diddit.wav

Pre-gap length 0:00:01.25

Peak level 100.0 % Track quality 100.0 % Test CRC F345FE8E Copy CRC F345FE8E Accurately ripped (confidence 7) [1A30A7EC] Copy OK

Track 4

Filename D:\EAC Rip\04 - Warm Canto.wav

Pre-gap length 0:00:02.07

Peak level 68.8 % Track quality 100.0 % Test CRC 6C05E385 Copy CRC 6C05E385 Accurately ripped (confidence 7) [891F776B] Copy OK

Track 5

Filename D:\EAC Rip\05 - Warp and Woof.wav

Pre-gap length 0:00:02.00

Peak level 88.0 % Track quality 100.0 % Test CRC 203A8931 Copy CRC 203A8931 Accurately ripped (confidence 7) [20180FB5] Copy OK

Track 6

Filename D:\EAC Rip\06 - Fire Waltz.wav

Pre-gap length 0:00:00.65

Peak level 100.0 % Track quality 100.0 % Test CRC DC030CD2 Copy CRC DC030CD2 Accurately ripped (confidence 7) [6D89912B] Copy OK

Track 7

Filename D:\EAC Rip\07 - Like Someone in Love.wav

Pre-gap length 0:00:00.62

Peak level 92.0 % Track quality 99.9 % Test CRC ACAD5141 Copy CRC ACAD5141 Accurately ripped (confidence 7) [6CAD28BB] Copy OK

Track 8

Filename D:\EAC Rip\08 - God Bless the Child.wav

Peak level 63.9 % Track quality 99.9 % Test CRC 9CC109EA Copy CRC 9CC109EA Accurately ripped (confidence 6) [CF963985] Copy OK

Track 9

Filename D:\EAC Rip\09 - Aggression.wav

Peak level 86.7 % Track quality 100.0 % Test CRC B5A0ABB4 Copy CRC B5A0ABB4 Accurately ripped (confidence 7) [315D8D0A] Copy OK

All tracks accurately ripped

No errors occurred

End of status report
 
Exact Audio Copy V0.99 prebeta 5 from 4. May 2009

EAC extraction logfile from 3. August 2010, 8:54

Eric Dolphy / The Complete Prestige Recordings (Disc7)

Used drive : HL-DT-STDVDRAM GSA-H10N Adapter: 1 ID: 0

Read mode : SecureUtilize accurate stream : YesDefeat audio cache : YesMake use of C2 pointers : No

Read offset correction : 667Overread into Lead-In and Lead-Out : NoFill up missing offset samples with silence : YesDelete leading and trailing silent blocks : NoNull samples used in CRC calculations : YesUsed interface : Native Win32 interface for Win NT & 2000Gap handling : Appended to previous track

Used output format : User Defined EncoderSelected bitrate : 768 kBit/sQuality : HighAdd ID3 tag : NoCommand line compressor : C:\Program Files (x86)\Exact Audio Copy\FLAC\FLAC.EXEAdditional command line options : -8 -V -T "ARTIST=%a" -T "TITLE=%t" -T "ALBUM=%g" -T "DATE=%y" -T "TRACKNUMBER=%n" -T "GENRE=%m" -T "COMMENT=Encoded by EAC 0.99pb5 FLAC -8" %s

TOC of the extracted CD

Track | Start | Length | Start sector | End sector --------------------------------------------------------- 1 | 0:00.00 | 13:24.55 | 0 | 60354 2 | 13:24.55 | 12:21.47 | 60355 | 115976 3 | 25:46.27 | 21:15.00 | 115977 | 211601 4 | 47:01.27 | 14:36.23 | 211602 | 277324 5 | 61:37.50 | 13:20.12 | 277325 | 337336

Track 1

Filename D:\EAC Rip\01 - Fire Waltz.wav

Pre-gap length 0:00:02.00

Peak level 100.0 % Track quality 100.0 % Test CRC 34C248CA Copy CRC 34C248CA Accurately ripped (confidence 7) [F7FAF80E] Copy OK

Track 2

Filename D:\EAC Rip\02 - Bee Vamp.wav

Peak level 100.0 % Track quality 100.0 % Test CRC 40E98C14 Copy CRC 40E98C14 Accurately ripped (confidence 7) [0D43E225] Copy OK

Track 3

Filename D:\EAC Rip\03 - The Prophet.wav

Pre-gap length 0:00:00.02

Peak level 100.0 % Track quality 100.0 % Test CRC 8AF99A10 Copy CRC 8AF99A10 Accurately ripped (confidence 6) [B7B86F0B] Copy OK

Track 4

Filename D:\EAC Rip\04 - Booker's Waltz.wav

Peak level 95.1 % Track quality 99.9 % Test CRC 155C451E Copy CRC 155C451E Accurately ripped (confidence 7) [056E39C1] Copy OK

Track 5

Filename D:\EAC Rip\05 - Status Seeking.wav

Peak level 93.0 % Track quality 100.0 % Test CRC 73D25690 Copy CRC 73D25690 Accurately ripped (confidence 6) [050A0469] Copy OK

All tracks accurately ripped

No errors occurred

End of status report
 
Exact Audio Copy V0.99 prebeta 5 from 4. May 2009

EAC extraction logfile from 3. August 2010, 9:17

Eric Dolphy / The Complete Prestige Recordings (Disc8)

Used drive : HL-DT-STDVDRAM GSA-H10N Adapter: 1 ID: 0

Read mode : SecureUtilize accurate stream : YesDefeat audio cache : YesMake use of C2 pointers : No

Read offset correction : 667Overread into Lead-In and Lead-Out : NoFill up missing offset samples with silence : YesDelete leading and trailing silent blocks : NoNull samples used in CRC calculations : YesUsed interface : Native Win32 interface for Win NT & 2000Gap handling : Appended to previous track

Used output format : User Defined EncoderSelected bitrate : 768 kBit/sQuality : HighAdd ID3 tag : NoCommand line compressor : C:\Program Files (x86)\Exact Audio Copy\FLAC\FLAC.EXEAdditional command line options : -8 -V -T "ARTIST=%a" -T "TITLE=%t" -T "ALBUM=%g" -T "DATE=%y" -T "TRACKNUMBER=%n" -T "GENRE=%m" -T "COMMENT=Encoded by EAC 0.99pb5 FLAC -8" %s

TOC of the extracted CD

Track | Start | Length | Start sector | End sector --------------------------------------------------------- 1 | 0:00.00 | 15:33.65 | 0 | 70039 2 | 15:33.65 | 10:05.50 | 70040 | 115464 3 | 25:39.40 | 11:08.55 | 115465 | 165619 4 | 36:48.20 | 12:10.43 | 165620 | 220412 5 | 48:58.63 | 11:44.60 | 220413 | 273272 6 | 60:43.48 | 5:55.35 | 273273 | 299932 7 | 66:39.08 | 9:08.62 | 299933 | 341094

Track 1

Filename D:\EAC Rip\01 - Number Eight (Potsa Lotsa).wav

Pre-gap length 0:00:02.00

Peak level 88.9 % Track quality 100.0 % Test CRC 236EC311 Copy CRC 236EC311 Accurately ripped (confidence 7) [CE2E4ADC] Copy OK

Track 2

Filename D:\EAC Rip\02 - Bee Vamp (alternate).wav

Peak level 94.8 % Track quality 99.9 % Test CRC 99A5C5DD Copy CRC 99A5C5DD Accurately ripped (confidence 7) [095F1835] Copy OK

Track 3

Filename D:\EAC Rip\03 - Don't Blame Me.wav

Pre-gap length 0:00:02.00

Peak level 86.6 % Track quality 100.0 % Test CRC 2448207F Copy CRC 2448207F Accurately ripped (confidence 7) [FC3D3822] Copy OK

Track 4

Filename D:\EAC Rip\04 - When Lights Are Low.wav

Peak level 99.8 % Track quality 100.0 % Test CRC EEA31E70 Copy CRC EEA31E70 Accurately ripped (confidence 7) [5F99C673] Copy OK

Track 5

Filename D:\EAC Rip\05 - Don't Blame Me (alternate).wav

Peak level 79.6 % Track quality 100.0 % Test CRC BC07C862 Copy CRC BC07C862 Accurately ripped (confidence 7) [C541610F] Copy OK

Track 6

Filename D:\EAC Rip\06 - Les.wav

Peak level 82.1 % Track quality 100.0 % Test CRC 3D679866 Copy CRC 3D679866 Accurately ripped (confidence 7) [33DA61AC] Copy OK

Track 7

Filename D:\EAC Rip\07 - The Way You Look Tonight.wav

Peak level 89.0 % Track quality 100.0 % Test CRC 748C2C19 Copy CRC 748C2C19 Accurately ripped (confidence 6) [2EDEED03] Copy OK

All tracks accurately ripped

No errors occurred

End of status report
 
Exact Audio Copy V0.99 prebeta 5 from 4. May 2009

EAC extraction logfile from 3. August 2010, 10:34

Eric Dolphy / The Complete Prestige Recordings (Disc9)

Used drive : HL-DT-STDVDRAM GSA-H10N Adapter: 1 ID: 0

Read mode : SecureUtilize accurate stream : YesDefeat audio cache : YesMake use of C2 pointers : No

Read offset correction : 667Overread into Lead-In and Lead-Out : NoFill up missing offset samples with silence : YesDelete leading and trailing silent blocks : NoNull samples used in CRC calculations : YesUsed interface : Native Win32 interface for Win NT & 2000Gap handling : Appended to previous track

Used output format : User Defined EncoderSelected bitrate : 768 kBit/sQuality : HighAdd ID3 tag : NoCommand line compressor : C:\Program Files (x86)\Exact Audio Copy\FLAC\FLAC.EXEAdditional command line options : -8 -V -T "ARTIST=%a" -T "TITLE=%t" -T "ALBUM=%g" -T "DATE=%y" -T "TRACKNUMBER=%n" -T "GENRE=%m" -T "COMMENT=Encoded by EAC 0.99pb5 FLAC -8" %s

TOC of the extracted CD

Track | Start | Length | Start sector | End sector --------------------------------------------------------- 1 | 0:00.00 | 10:14.10 | 0 | 46059 2 | 10:14.10 | 13:12.15 | 46060 | 105474 3 | 23:26.25 | 6:20.10 | 105475 | 133984 4 | 29:46.35 | 7:08.28 | 133985 | 166112 5 | 36:54.63 | 16:59.47 | 166113 | 242584 6 | 53:54.35 | 13:27.48 | 242585 | 303157 7 | 67:22.08 | 7:22.42 | 303158 | 336349

Track 1

Filename D:\EAC Rip\01 - Woody'N You.wav

Pre-gap length 0:00:02.00

Peak level 94.3 % Track quality 100.0 % Test CRC 7B109DA3 Copy CRC 7B109DA3 Accurately ripped (confidence 3) [838C7D39] Copy OK

Track 2

Filename D:\EAC Rip\02 - Laura.wav

Pre-gap length 0:00:00.57

Peak level 86.2 % Track quality 100.0 % Test CRC 7931D85D Copy CRC 7931D85D Accurately ripped (confidence 3) [07385EE1] Copy OK

Track 3

Filename D:\EAC Rip\03 - Glad To Be Unhappy.wav

Peak level 96.0 % Track quality 100.0 % Test CRC 648A8D0B Copy CRC 648A8D0B Accurately ripped (confidence 3) [DE67E4B6] Copy OK

Track 4

Filename D:\EAC Rip\04 - God Bless The Child.wav

Pre-gap length 0:00:02.00

Peak level 71.5 % Track quality 99.9 % Test CRC 32E6A737 Copy CRC 32E6A737 Accurately ripped (confidence 3) [A734B3C0] Copy OK

Track 5

Filename D:\EAC Rip\05 - In The Blues (takes 1-3).wav

Peak level 89.9 % Track quality 100.0 % Test CRC 249B8B48 Copy CRC 249B8B48 Accurately ripped (confidence 3) [CA34A8BA] Copy OK

Track 6

Filename D:\EAC Rip\06 - Hi-Fly.wav

Peak level 100.0 % Track quality 100.0 % Test CRC 343C2A4D Copy CRC 343C2A4D Accurately ripped (confidence 3) [EF6384A2] Copy OK

Track 7

Filename D:\EAC Rip\07 - Oleo.wav

Peak level 88.1 % Track quality 100.0 % Test CRC 69C7E339 Copy CRC 69C7E339 Accurately ripped (confidence 3) [0AFBF13C] Copy OK

All tracks accurately ripped

No errors occurred

End of status report
 
REM DATE 1995REM DISCID 96122F0BREM COMMENT "ExactAudioCopy v0.99pb5"PERFORMER "Eric Dolphy"TITLE "The Complete Prestige Recordings (Disc1)"FILE "01 - G.W..wav" WAVE TRACK 01 AUDIO TITLE "G.W." PERFORMER "Eric Dolphy" INDEX 01 00:00:00 TRACK 02 AUDIO TITLE "On Green Dolphin Street" PERFORMER "Eric Dolphy" INDEX 00 07:57:50FILE "02 - On Green Dolphin Street.wav" WAVE INDEX 01 00:00:00 TRACK 03 AUDIO TITLE "Les" PERFORMER "Eric Dolphy" INDEX 00 05:44:30FILE "03 - Les.wav" WAVE INDEX 01 00:00:00 TRACK 04 AUDIO TITLE "245" PERFORMER "Eric Dolphy" INDEX 00 05:12:63FILE "04 - 245.wav" WAVE INDEX 01 00:00:00 TRACK 05 AUDIO TITLE "Glad To Be Unhappy" PERFORMER "Eric Dolphy" INDEX 00 06:49:72FILE "05 - Glad To Be Unhappy.wav" WAVE INDEX 01 00:00:00 TRACK 06 AUDIO TITLE "Miss Toni" PERFORMER "Eric Dolphy" INDEX 00 05:27:73FILE "06 - Miss Toni.wav" WAVE INDEX 01 00:00:00 TRACK 07 AUDIO TITLE "April Fool" PERFORMER "Eric Dolphy" INDEX 00 05:39:65FILE "07 - April Fool.wav" WAVE INDEX 01 00:00:00 TRACK 08 AUDIO TITLE "G.W. (alternate take I)" PERFORMER "Eric Dolphy" INDEX 00 04:07:40FILE "08 - G.W. (alternate take I).wav" WAVE INDEX 01 00:00:00 TRACK 09 AUDIO TITLE "245 (alternate take I)" PERFORMER "Eric Dolphy" INDEX 00 12:09:55FILE "09 - 245 (alternate take I).wav" WAVE INDEX 01 00:00:00 TRACK 10 AUDIO TITLE "Screamin' the Blues" PERFORMER "Eric Dolphy" INDEX 00 08:09:35FILE "10 - Screamin' the Blues.wav" WAVE INDEX 01 00:00:00 TRACK 11 AUDIO TITLE "March On, March On" PERFORMER "Eric Dolphy" INDEX 00 10:58:50FILE "11 - March On, March On.wav" WAVE INDEX 01 00:00:00
 
REM DATE 1995REM DISCID A3112B0BREM COMMENT "ExactAudioCopy v0.99pb5"PERFORMER "Eric Dolphy"TITLE "The Complete Prestige Recordings (Disc2)"FILE "01 - The Drive.wav" WAVE TRACK 01 AUDIO TITLE "The Drive" PERFORMER "Eric Dolphy" INDEX 01 00:00:00 TRACK 02 AUDIO TITLE "The Meetin'" PERFORMER "Eric Dolphy" INDEX 00 05:48:48FILE "02 - The Meetin'.wav" WAVE INDEX 01 00:00:00 TRACK 03 AUDIO TITLE "Three Seconds" PERFORMER "Eric Dolphy" INDEX 00 06:42:40FILE "03 - Three Seconds.wav" WAVE INDEX 01 00:00:00 TRACK 04 AUDIO TITLE "Alto-Itis" PERFORMER "Eric Dolphy" INDEX 00 06:23:67FILE "04 - Alto-Itis.wav" WAVE INDEX 01 00:00:00 TRACK 05 AUDIO TITLE "Lautir" PERFORMER "Eric Dolphy" INDEX 00 04:58:68FILE "05 - Lautir.wav" WAVE INDEX 01 00:00:00 TRACK 06 AUDIO TITLE "Curtsy" PERFORMER "Eric Dolphy" INDEX 00 04:03:50FILE "06 - Curtsy.wav" WAVE INDEX 01 00:00:00 TRACK 07 AUDIO TITLE "Geo's Tune" PERFORMER "Eric Dolphy" INDEX 00 05:51:43FILE "07 - Geo's Tune.wav" WAVE INDEX 01 00:00:00 TRACK 08 AUDIO TITLE "They All Laughed" PERFORMER "Eric Dolphy" INDEX 00 07:13:20FILE "08 - They All Laughed.wav" WAVE INDEX 01 00:00:00 TRACK 09 AUDIO TITLE "Head Shakin'" PERFORMER "Eric Dolphy" INDEX 00 05:07:63FILE "09 - Head Shakin'.wav" WAVE INDEX 01 00:00:00 TRACK 10 AUDIO TITLE "Dianna" PERFORMER "Eric Dolphy" INDEX 00 10:45:70FILE "10 - Dianna.wav" WAVE INDEX 01 00:00:00 TRACK 11 AUDIO TITLE "Out There" PERFORMER "Eric Dolphy" INDEX 00 09:07:13FILE "11 - Out There.wav" WAVE INDEX 01 00:00:00
 
REM DATE 1995REM DISCID C511980EREM COMMENT "ExactAudioCopy v0.99pb5"PERFORMER "Eric Dolphy"TITLE "The Complete Prestige Recordings (Disc3)"FILE "01 - Serene.wav" WAVE TRACK 01 AUDIO TITLE "Serene" PERFORMER "Eric Dolphy" INDEX 01 00:00:00 TRACK 02 AUDIO TITLE "The Baron" PERFORMER "Eric Dolphy" INDEX 00 06:59:60FILE "02 - The Baron.wav" WAVE INDEX 01 00:00:00 TRACK 03 AUDIO TITLE "Eclipse" PERFORMER "Eric Dolphy" INDEX 00 02:55:55FILE "03 - Eclipse.wav" WAVE INDEX 01 00:00:00 TRACK 04 AUDIO TITLE "17 West" PERFORMER "Eric Dolphy" INDEX 00 02:43:65FILE "04 - 17 West.wav" WAVE INDEX 01 00:00:00 TRACK 05 AUDIO TITLE "Sketch of Melba" PERFORMER "Eric Dolphy" INDEX 00 04:48:15FILE "05 - Sketch of Melba.wav" WAVE INDEX 01 00:00:00 TRACK 06 AUDIO TITLE "Feather" PERFORMER "Eric Dolphy" INDEX 00 04:37:53FILE "06 - Feather.wav" WAVE INDEX 01 00:00:00 TRACK 07 AUDIO TITLE "Caribe" PERFORMER "Eric Dolphy" INDEX 00 04:59:62FILE "07 - Caribe.wav" WAVE INDEX 01 00:00:00 TRACK 08 AUDIO TITLE "Blues in 6/8" PERFORMER "Eric Dolphy" INDEX 00 10:06:45FILE "08 - Blues in 6,8.wav" WAVE INDEX 01 00:00:00 TRACK 09 AUDIO TITLE "First Bass Line" PERFORMER "Eric Dolphy" INDEX 00 05:43:72FILE "09 - First Bass Line.wav" WAVE INDEX 01 00:00:00 TRACK 10 AUDIO TITLE "Mambo Ricci" PERFORMER "Eric Dolphy" INDEX 00 04:05:49FILE "10 - Mambo Ricci.wav" WAVE INDEX 01 00:00:00 TRACK 11 AUDIO TITLE "Spring Is Here" PERFORMER "Eric Dolphy" INDEX 00 06:54:70FILE "11 - Spring Is Here.wav" WAVE INDEX 01 00:00:00 TRACK 12 AUDIO TITLE "Sunday Go Meetin'" PERFORMER "Eric Dolphy" INDEX 00 05:06:55FILE "12 - Sunday Go Meetin'.wav" WAVE INDEX 01 00:00:00 TRACK 13 AUDIO TITLE "Trane Whistle" PERFORMER "Eric Dolphy" INDEX 00 05:49:65FILE "13 - Trane Whistle.wav" WAVE INDEX 01 00:00:00 TRACK 14 AUDIO TITLE "Whole Nelson" PERFORMER "Eric Dolphy" INDEX 00 06:16:38FILE "14 - Whole Nelson.wav" WAVE INDEX 01 00:00:00
 
REM DATE 1995REM DISCID CB121E0DREM COMMENT "ExactAudioCopy v0.99pb5"PERFORMER "Eric Dolphy"TITLE "The Complete Prestige Recordings (Disc4)"FILE "01 - You Are Too Beautiful.wav" WAVE TRACK 01 AUDIO TITLE "You Are Too Beautiful" PERFORMER "Eric Dolphy" INDEX 01 00:00:00 TRACK 02 AUDIO TITLE "The Stolen Moment" PERFORMER "Eric Dolphy" INDEX 00 05:10:65FILE "02 - The Stolen Moment.wav" WAVE INDEX 01 00:00:00 TRACK 03 AUDIO TITLE "Walk Away" PERFORMER "Eric Dolphy" INDEX 00 07:51:02FILE "03 - Walk Away.wav" WAVE INDEX 01 00:00:00 TRACK 04 AUDIO TITLE "Jaws" PERFORMER "Eric Dolphy" INDEX 00 05:24:67FILE "04 - Jaws.wav" WAVE INDEX 01 00:00:00 TRACK 05 AUDIO TITLE "Mrs. Parker of K.C. (Bird's Mother)" PERFORMER "Eric Dolphy" INDEX 00 04:36:08FILE "05 - Mrs. Parker of K.C. (Bird's Mother).wav" WAVE INDEX 01 00:00:00 TRACK 06 AUDIO TITLE "Ode to Charlie Parker" PERFORMER "Eric Dolphy" INDEX 00 08:01:13FILE "06 - Ode to Charlie Parker.wav" WAVE INDEX 01 00:00:00 TRACK 07 AUDIO TITLE "Far Cry" PERFORMER "Eric Dolphy" INDEX 00 08:42:37FILE "07 - Far Cry.wav" WAVE INDEX 01 00:00:00 TRACK 08 AUDIO TITLE "Miss Ann" PERFORMER "Eric Dolphy" INDEX 00 03:53:07FILE "08 - Miss Ann.wav" WAVE INDEX 01 00:00:00 TRACK 09 AUDIO TITLE "Left Alone" PERFORMER "Eric Dolphy" INDEX 00 04:15:72FILE "09 - Left Alone.wav" WAVE INDEX 01 00:00:00 TRACK 10 AUDIO TITLE "Tenderly" PERFORMER "Eric Dolphy" INDEX 00 06:40:05FILE "10 - Tenderly.wav" WAVE INDEX 01 00:00:00 TRACK 11 AUDIO TITLE "It's Magic" PERFORMER "Eric Dolphy" INDEX 00 04:18:00FILE "11 - It's Magic.wav" WAVE INDEX 01 00:00:00 TRACK 12 AUDIO TITLE "Serene" PERFORMER "Eric Dolphy" INDEX 00 05:39:42FILE "12 - Serene.wav" WAVE INDEX 01 00:00:00 TRACK 13 AUDIO TITLE "Images" PERFORMER "Eric Dolphy" INDEX 00 06:37:45FILE "13 - Images.wav" WAVE INDEX 01 00:00:00
 
REM DATE 1995REM DISCID A711E50CREM COMMENT "ExactAudioCopy v0.99pb5"PERFORMER "Eric Dolphy"TITLE "The Complete Prestige Recordings (Disc5)"FILE "01 - Six And Four.wav" WAVE TRACK 01 AUDIO TITLE "Six And Four" PERFORMER "Eric Dolphy" INDEX 01 00:00:00 TRACK 02 AUDIO TITLE "Mama Lou" PERFORMER "Eric Dolphy" INDEX 00 07:15:30FILE "02 - Mama Lou.wav" WAVE INDEX 01 00:00:00 TRACK 03 AUDIO TITLE "Ralph's New Blues" PERFORMER "Eric Dolphy" INDEX 00 05:01:37FILE "03 - Ralph's New Blues.wav" WAVE INDEX 01 00:00:00 TRACK 04 AUDIO TITLE "Straight Ahead" PERFORMER "Eric Dolphy" INDEX 00 09:53:37FILE "04 - Straight Ahead.wav" WAVE INDEX 01 00:00:00 TRACK 05 AUDIO TITLE "111-44" PERFORMER "Eric Dolphy" INDEX 00 05:32:00FILE "05 - 111-44.wav" WAVE INDEX 01 00:00:00 TRACK 06 AUDIO TITLE "Rally" PERFORMER "Eric Dolphy" INDEX 00 03:25:18FILE "06 - Rally.wav" WAVE INDEX 01 00:00:00 TRACK 07 AUDIO TITLE "Bass Duet" PERFORMER "Eric Dolphy" INDEX 00 05:39:72FILE "07 - Bass Duet.wav" WAVE INDEX 01 00:00:00 TRACK 08 AUDIO TITLE "Softly, As In A Morning Sunrise" PERFORMER "Eric Dolphy" INDEX 00 05:41:65FILE "08 - Softly, As In A Morning Sunrise.wav" WAVE INDEX 01 00:00:00 TRACK 09 AUDIO TITLE "Where?" PERFORMER "Eric Dolphy" INDEX 00 07:36:57FILE "09 - Where .wav" WAVE INDEX 01 00:00:00 TRACK 10 AUDIO TITLE "Yes, Indeed" PERFORMER "Eric Dolphy" INDEX 00 05:57:52FILE "10 - Yes, Indeed.wav" WAVE INDEX 01 00:00:00 TRACK 11 AUDIO TITLE "Saucer Eyes" PERFORMER "Eric Dolphy" INDEX 00 05:49:05FILE "11 - Saucer Eyes.wav" WAVE INDEX 01 00:00:00 TRACK 12 AUDIO TITLE "Status Seeking" PERFORMER "Eric Dolphy" INDEX 00 05:06:62FILE "12 - Status Seeking.wav" WAVE INDEX 01 00:00:00
 
REM DATE 1995REM DISCID 6B117A09REM COMMENT "ExactAudioCopy v0.99pb5"PERFORMER "Eric Dolphy"TITLE "The Complete Prestige Recordings (Disc6)"FILE "01 - Duquility.wav" WAVE TRACK 01 AUDIO TITLE "Duquility" PERFORMER "Eric Dolphy" INDEX 01 00:00:00 TRACK 02 AUDIO TITLE "Thirteen" PERFORMER "Eric Dolphy" INDEX 00 04:08:32FILE "02 - Thirteen.wav" WAVE INDEX 01 00:00:00 TRACK 03 AUDIO TITLE "We Diddit" PERFORMER "Eric Dolphy" INDEX 00 04:42:12FILE "03 - We Diddit.wav" WAVE INDEX 01 00:00:00 TRACK 04 AUDIO TITLE "Warm Canto" PERFORMER "Eric Dolphy" INDEX 00 04:23:10FILE "04 - Warm Canto.wav" WAVE INDEX 01 00:00:00 TRACK 05 AUDIO TITLE "Warp and Woof" PERFORMER "Eric Dolphy" INDEX 00 05:37:23FILE "05 - Warp and Woof.wav" WAVE INDEX 01 00:00:00 TRACK 06 AUDIO TITLE "Fire Waltz" PERFORMER "Eric Dolphy" INDEX 00 05:36:03FILE "06 - Fire Waltz.wav" WAVE INDEX 01 00:00:00 TRACK 07 AUDIO TITLE "Like Someone in Love" PERFORMER "Eric Dolphy" INDEX 00 07:57:55FILE "07 - Like Someone in Love.wav" WAVE INDEX 01 00:00:00FILE "08 - God Bless the Child.wav" WAVE TRACK 08 AUDIO TITLE "God Bless the Child" PERFORMER "Eric Dolphy" INDEX 01 00:00:00FILE "09 - Aggression.wav" WAVE TRACK 09 AUDIO TITLE "Aggression" PERFORMER "Eric Dolphy" INDEX 01 00:00:00
 
REM DATE 1995REM DISCID 4C119105REM COMMENT "ExactAudioCopy v0.99pb5"PERFORMER "Eric Dolphy"TITLE "The Complete Prestige Recordings (Disc7)"FILE "01 - Fire Waltz.wav" WAVE TRACK 01 AUDIO TITLE "Fire Waltz" PERFORMER "Eric Dolphy" INDEX 01 00:00:00FILE "02 - Bee Vamp.wav" WAVE TRACK 02 AUDIO TITLE "Bee Vamp" PERFORMER "Eric Dolphy" INDEX 01 00:00:00 TRACK 03 AUDIO TITLE "The Prophet" PERFORMER "Eric Dolphy" INDEX 00 12:21:45FILE "03 - The Prophet.wav" WAVE INDEX 01 00:00:00FILE "04 - Booker's Waltz.wav" WAVE TRACK 04 AUDIO TITLE "Booker's Waltz" PERFORMER "Eric Dolphy" INDEX 01 00:00:00FILE "05 - Status Seeking.wav" WAVE TRACK 05 AUDIO TITLE "Status Seeking" PERFORMER "Eric Dolphy" INDEX 01 00:00:00
 
REM DATE 1995REM DISCID 4911C307REM COMMENT "ExactAudioCopy v0.99pb5"PERFORMER "Eric Dolphy"TITLE "The Complete Prestige Recordings (Disc8)"FILE "01 - Number Eight (Potsa Lotsa).wav" WAVE TRACK 01 AUDIO TITLE "Number Eight (Potsa Lotsa)" PERFORMER "Eric Dolphy" INDEX 01 00:00:00FILE "02 - Bee Vamp (alternate).wav" WAVE TRACK 02 AUDIO TITLE "Bee Vamp (alternate)" PERFORMER "Eric Dolphy" INDEX 01 00:00:00 TRACK 03 AUDIO TITLE "Don't Blame Me" PERFORMER "Eric Dolphy" INDEX 00 10:03:50FILE "03 - Don't Blame Me.wav" WAVE INDEX 01 00:00:00FILE "04 - When Lights Are Low.wav" WAVE TRACK 04 AUDIO TITLE "When Lights Are Low" PERFORMER "Eric Dolphy" INDEX 01 00:00:00FILE "05 - Don't Blame Me (alternate).wav" WAVE TRACK 05 AUDIO TITLE "Don't Blame Me (alternate)" PERFORMER "Eric Dolphy" INDEX 01 00:00:00FILE "06 - Les.wav" WAVE TRACK 06 AUDIO TITLE "Les" PERFORMER "Eric Dolphy" INDEX 01 00:00:00FILE "07 - The Way You Look Tonight.wav" WAVE TRACK 07 AUDIO TITLE "The Way You Look Tonight" PERFORMER "Eric Dolphy" INDEX 01 00:00:00
 
REM GENRE JazzREM DATE 1995REM DISCID 59118407REM COMMENT "ExactAudioCopy v0.99pb5"PERFORMER "Eric Dolphy"TITLE "The Complete Prestige Recordings (Disc9)"FILE "01 - Woody'N You.wav" WAVE TRACK 01 AUDIO TITLE "Woody'N You" PERFORMER "Eric Dolphy" INDEX 01 00:00:00 TRACK 02 AUDIO TITLE "Laura" PERFORMER "Eric Dolphy" INDEX 00 10:13:28FILE "02 - Laura.wav" WAVE INDEX 01 00:00:00FILE "03 - Glad To Be Unhappy.wav" WAVE TRACK 03 AUDIO TITLE "Glad To Be Unhappy" PERFORMER "Eric Dolphy" INDEX 01 00:00:00 TRACK 04 AUDIO TITLE "God Bless The Child" PERFORMER "Eric Dolphy" INDEX 00 06:18:10FILE "04 - God Bless The Child.wav" WAVE INDEX 01 00:00:00FILE "05 - In The Blues (takes 1-3).wav" WAVE TRACK 05 AUDIO TITLE "In The Blues (takes 1-3)" PERFORMER "Eric Dolphy" INDEX 01 00:00:00FILE "06 - Hi-Fly.wav" WAVE TRACK 06 AUDIO TITLE "Hi-Fly" PERFORMER "Eric Dolphy" INDEX 01 00:00:00FILE "07 - Oleo.wav" WAVE TRACK 07 AUDIO TITLE "Oleo" PERFORMER "Eric Dolphy" INDEX 01 00:00:00

За рип спасибо jaco35

Трекер:  [ 16-Фев-2012 16:44 ]

  

Скачать .torrent

Размер .torrent файла 36 KB


Размер: 4.2 GB
Хэш (hash) релиза: ea9c400439fcde8510e62f2059cc26ad7dbb6d1a

Еще никто не оставлял запись к записи скачать торрент Eric Dolphy - The Complete Prestige Recordings . Будь первым!

!Обратная связь