Скачать через торрент музыку Eric Dolphy - At the Five Spot, Vol. 1 бесплатно без регистрации torrent

Если у вас наблюдаются проблемы со скриншотами, переходом по ссылками, скачиванием торрентов - проблемы в блокировщике рекламы AdBlock. #хорошегоДня!


Статистика раздачи
Размер:  382 MB   |    Зарегистрирован:  5 лет 8 месяцев   |    .torrent скачан:  24 раза   |   
Раздают:  1  
   
Загрузка...
 
Автор Сообщение

Umakiro

avatar Umakiro


Eric Dolphy - At the Five Spot, Vol. 1
Жанр: Free-Jazz / Post-Bop / Alto Sax
Год выпуска диска: 1991
Производитель диска: Prestige New Jazz/OJC (OJCCD-133-2 / NJ-8260)
Аудио кодек: FLAC
Тип рипа: tracks+.cue
Битрейт аудио: lossless
Продолжительность: 0:57:26
Источник: What.CD / Monk422
Треклист:
01. Fire Waltz (13:47)
02. Bee Vamp (12:27)
03. The Prophet (21:26)
04. Bee Vamp (alternate take) (9:46)

Eric Dolphy - alto sax, bass clarinet
Booker Little - trumpet
Mal Waldron - piano
Richard Davis - bass
Ed Blackwell - drums

Recorded at Van Gelder Studios, Englewood Cliffs, NJ; July 16, 1961

.
 
EAC extraction logfile from 10. May 2007, 12:22 for CDEric Dolphy / Eric Dolphy at the Five Spot, Vol. 1

Used drive : HL-DT-STDVDRAM GSA-4163B Adapter: 1 ID: 1Read mode : Secure with NO C2, accurate stream, disable cacheRead offset correction : 667Overread into Lead-In and Lead-Out : No

Used output format : Internal WAV Routines 44.100 Hz; 16 Bit; Stereo

Other options : Fill up missing offset samples with silence : Yes Delete leading and trailing silent blocks : No Installed external ASPI interface

Track 1 Filename D:\Eric Dolphy - At The Five Spot, Vol 1 (1961)[FLAC]{OJC}\01 - Fire Waltz.wav

Pre-gap length 0:00:02.00

Peak level 100.0 % Track quality 100.0 % Test CRC DB8B6E93 Copy CRC DB8B6E93 Copy OK

Track 2 Filename D:\Eric Dolphy - At The Five Spot, Vol 1 (1961)[FLAC]{OJC}\02 - Bee Vamp.wav

Pre-gap length 0:00:02.29

Peak level 100.0 % Track quality 100.0 % Test CRC BD18D4B0 Copy CRC BD18D4B0 Copy OK

Track 3 Filename D:\Eric Dolphy - At The Five Spot, Vol 1 (1961)[FLAC]{OJC}\03 - The Prophet.wav

Pre-gap length 0:00:00.26

Peak level 99.7 % Track quality 100.0 % Test CRC F8B708EB Copy CRC F8B708EB Copy OK

Track 4 Filename D:\Eric Dolphy - At The Five Spot, Vol 1 (1961)[FLAC]{OJC}\04 - Bee Vamp [alternate take].wav

Pre-gap length 0:00:00.43

Peak level 99.1 % Track quality 100.0 % Test CRC 2018AE25 Copy CRC 2018AE25 Copy OK

No errors occured

End of status report
 
REM GENRE JazzREM DATE 1961REM DISCID 3A0D7604REM COMMENT "ExactAudioCopy v0.95b2"PERFORMER "Eric Dolphy"TITLE "Eric Dolphy at the Five Spot, Vol. 1"FILE "01 - Fire Waltz.wav" WAVE TRACK 01 AUDIO TITLE "Fire Waltz" PERFORMER "Eric Dolphy" INDEX 01 00:00:00 TRACK 02 AUDIO TITLE "Bee Vamp" PERFORMER "Eric Dolphy" INDEX 00 13:44:51FILE "02 - Bee Vamp.wav" WAVE INDEX 01 00:00:00 TRACK 03 AUDIO TITLE "The Prophet" PERFORMER "Eric Dolphy" INDEX 00 12:27:11FILE "03 - The Prophet.wav" WAVE INDEX 01 00:00:00 TRACK 04 AUDIO TITLE "Bee Vamp [alternate take]" PERFORMER "Eric Dolphy" INDEX 00 21:25:32FILE "04 - Bee Vamp [alternate take].wav" WAVE INDEX 01 00:00:00


Трекер:  [ 16-Фев-2012 16:42 ]

  

Скачать .torrent

Размер .torrent файла 16 KB


Размер: 382 MB
Хэш (hash) релиза: 71f174693195ae120304a928a31fa2359ceb9b76

Еще никто не оставлял запись к записи скачать торрент Eric Dolphy - At the Five Spot, Vol. 1 . Будь первым!

!Обратная связь