Скачать через торрент музыку Miles Davis бесплатно без регистрации torrent

Если у вас наблюдаются проблемы со скриншотами, переходом по ссылками, скачиванием торрентов - проблемы в блокировщике рекламы AdBlock. #хорошегоДня!


Статистика раздачи
Размер:  1.22 GB   |    Зарегистрирован:  5 лет 8 месяцев   |    .torrent скачан:  37 раз   |   
Раздают:  1  
   
Загрузка...
 
Автор Сообщение

Umakiro

avatar Umakiro


Miles Davis with John Coltrane & Sonny Stitt - In Stockholm 1960 Complete
Жанр: Hard Bop / Cool / Trumpet
Год выпуска диска: 1992
Производитель диска: Dragon (DRCD 228)
Аудио кодек: FLAC
Тип рипа: tracks+.cue
Битрейт аудио: lossless
Источник: AvaxHome / ruskaval
Продолжительность: 4:27:44
Треклист:
Disc 1:
01. So What (15:19)
02. On Green Dolphin Street (13:40)
03. All Blues / The Theme (17:12)
04. Interview with John Coltrane (6:14)
05. So What (10:49)
06. Fran-Dance (7:28)
Disc 2:
01. Walkin' / The Theme (17:21)
02. Walkin' (13:20)
03. Autumn Leaves (13:32)
04. So What (11:11)
05. 'Round Midnight / The Theme (7:17)
Disc 3:
01. June Night (10:41)
02. Stardust (4:18)
03. On Green Dolphin Street (13:44)
04. All Blues / The Theme (14:40)
05. All Of You (15:40)
Disc 4:
01. Walkin' (14:38)
02. Autumn Leaves / The Theme (14:50)
03. Softly As In A Morning Sunrise (8:18)
04. Makin' Whopee (7:56)
05. Lover Man (4:18)
06. If I Were A Bell (11:13)
07. No Blues / The Theme (14:09)

Miles Davis - trumpet
John Coltrane - tenor sax
Sonny Stitt - alto, tenor saxes
Wynton Kelly - piano
Paul Chambers - bass
Jimmy Cobb - drums

Recorded at Stockholm's Concert Hall, Sweden, March 22 and October 13, 1960
 
Exact Audio Copy V0.99 prebeta 5 from 4. May 2009

EAC extraction logfile from 2. August 2010, 18:17

Miles Davis / In Stockholm 1960 Complete (CD1)

Used drive : TSSTcorpCD/DVDW TS-H552L Adapter: 3 ID: 0

Read mode : SecureUtilize accurate stream : YesDefeat audio cache : YesMake use of C2 pointers : No

Read offset correction : 6Overread into Lead-In and Lead-Out : NoFill up missing offset samples with silence : YesDelete leading and trailing silent blocks : NoNull samples used in CRC calculations : YesUsed interface : Native Win32 interface for Win NT & 2000Gap handling : Appended to previous track

Used output format : User Defined EncoderSelected bitrate : 1024 kBit/sQuality : HighAdd ID3 tag : NoCommand line compressor : C:\Program Files\FLAC\flac.exeAdditional command line options : -6 -V -T "ARTIST=%a" -T "TITLE=%t" -T "ALBUM=%g" -T "DATE=%y" -T "TRACKNUMBER=%n" -T "GENRE=%m" -T "COMMENT=EAC FLAC -6" %s

TOC of the extracted CD

Track | Start | Length | Start sector | End sector --------------------------------------------------------- 1 | 0:00.00 | 15:19.07 | 0 | 68931 2 | 15:19.07 | 13:39.40 | 68932 | 130396 3 | 28:58.47 | 17:11.65 | 130397 | 207786 4 | 46:10.37 | 6:14.33 | 207787 | 235869 5 | 52:24.70 | 10:48.50 | 235870 | 284519 6 | 63:13.45 | 7:27.47 | 284520 | 318091

Track 1

Filename C:\ruskaval\Miles Davis - In Stockholm 1960 Complete (1992) [4CD] {Dragon Records}\CD1\01 - So What.wav

Pre-gap length 0:00:02.00

Peak level 94.8 % Track quality 100.0 % Test CRC 5AA58D40 Copy CRC 5AA58D40 Accurately ripped (confidence 5) [AFAF1203] Copy OK

Track 2

Filename C:\ruskaval\Miles Davis - In Stockholm 1960 Complete (1992) [4CD] {Dragon Records}\CD1\02 - On Green Dolphin Street.wav

Peak level 95.8 % Track quality 99.9 % Test CRC E8E8DDC1 Copy CRC E8E8DDC1 Accurately ripped (confidence 5) [7503BDE4] Copy OK

Track 3

Filename C:\ruskaval\Miles Davis - In Stockholm 1960 Complete (1992) [4CD] {Dragon Records}\CD1\03 - All Blues , The Theme.wav

Peak level 94.4 % Track quality 100.0 % Test CRC 43C261DC Copy CRC 43C261DC Accurately ripped (confidence 5) [5B874099] Copy OK

Track 4

Filename C:\ruskaval\Miles Davis - In Stockholm 1960 Complete (1992) [4CD] {Dragon Records}\CD1\04 - Interview with John Coltrane.wav

Peak level 89.1 % Track quality 100.0 % Test CRC 0DA0EA0C Copy CRC 0DA0EA0C Accurately ripped (confidence 5) [2E784BB5] Copy OK

Track 5

Filename C:\ruskaval\Miles Davis - In Stockholm 1960 Complete (1992) [4CD] {Dragon Records}\CD1\05 - So What.wav

Peak level 89.1 % Track quality 100.0 % Test CRC 3C846A5E Copy CRC 3C846A5E Accurately ripped (confidence 5) [487192A7] Copy OK

Track 6

Filename C:\ruskaval\Miles Davis - In Stockholm 1960 Complete (1992) [4CD] {Dragon Records}\CD1\06 - Fran-Dance.wav

Peak level 97.3 % Track quality 99.9 % Test CRC FBF86174 Copy CRC FBF86174 Accurately ripped (confidence 5) [F3794C3E] Copy OK

All tracks accurately ripped

No errors occurred

End of status report
 
Exact Audio Copy V0.99 prebeta 5 from 4. May 2009

EAC extraction logfile from 2. August 2010, 18:30

Miles Davis / In Stockholm 1960 Complete (CD2)

Used drive : TSSTcorpCD/DVDW TS-H552L Adapter: 3 ID: 0

Read mode : SecureUtilize accurate stream : YesDefeat audio cache : YesMake use of C2 pointers : No

Read offset correction : 6Overread into Lead-In and Lead-Out : NoFill up missing offset samples with silence : YesDelete leading and trailing silent blocks : NoNull samples used in CRC calculations : YesUsed interface : Native Win32 interface for Win NT & 2000Gap handling : Appended to previous track

Used output format : User Defined EncoderSelected bitrate : 1024 kBit/sQuality : HighAdd ID3 tag : NoCommand line compressor : C:\Program Files\FLAC\flac.exeAdditional command line options : -6 -V -T "ARTIST=%a" -T "TITLE=%t" -T "ALBUM=%g" -T "DATE=%y" -T "TRACKNUMBER=%n" -T "GENRE=%m" -T "COMMENT=EAC FLAC -6" %s

TOC of the extracted CD

Track | Start | Length | Start sector | End sector --------------------------------------------------------- 1 | 0:00.00 | 17:21.15 | 0 | 78089 2 | 17:21.15 | 13:20.10 | 78090 | 138099 3 | 30:41.25 | 13:31.45 | 138100 | 198969 4 | 44:12.70 | 11:10.67 | 198970 | 249286 5 | 55:23.62 | 7:16.70 | 249287 | 282056

Track 1

Filename C:\ruskaval\Miles Davis - In Stockholm 1960 Complete (1992) [4CD] {Dragon Records}\CD2\01 - Walkin' , The Theme.wav

Pre-gap length 0:00:02.00

Peak level 94.0 % Track quality 100.0 % Test CRC C9CCD10C Copy CRC C9CCD10C Accurately ripped (confidence 1) [A29C3E54] Copy OK

Track 2

Filename C:\ruskaval\Miles Davis - In Stockholm 1960 Complete (1992) [4CD] {Dragon Records}\CD2\02 - Walkin'.wav

Pre-gap length 0:00:01.63

Peak level 96.4 % Track quality 100.0 % Test CRC 4E0C6E5F Copy CRC 4E0C6E5F Accurately ripped (confidence 1) [6DF4BF08] Copy OK

Track 3

Filename C:\ruskaval\Miles Davis - In Stockholm 1960 Complete (1992) [4CD] {Dragon Records}\CD2\03 - Autumn Leaves.wav

Peak level 97.7 % Track quality 100.0 % Test CRC 763B2A0B Copy CRC 763B2A0B Accurately ripped (confidence 1) [53121A6C] Copy OK

Track 4

Filename C:\ruskaval\Miles Davis - In Stockholm 1960 Complete (1992) [4CD] {Dragon Records}\CD2\04 - So What.wav

Peak level 89.7 % Track quality 100.0 % Test CRC 781A5AB9 Copy CRC 781A5AB9 Accurately ripped (confidence 1) [EE3F17A5] Copy OK

Track 5

Filename C:\ruskaval\Miles Davis - In Stockholm 1960 Complete (1992) [4CD] {Dragon Records}\CD2\05 - 'Round Midnight , The Theme.wav

Peak level 95.4 % Track quality 100.0 % Test CRC 7A86FAEF Copy CRC 7A86FAEF Accurately ripped (confidence 1) [131B0258] Copy OK

All tracks accurately ripped

No errors occurred

End of status report
 
Exact Audio Copy V0.99 prebeta 5 from 4. May 2009

EAC extraction logfile from 2. August 2010, 18:40

Miles Davis / In Stockholm 1960 Complete (CD3)

Used drive : TSSTcorpCD/DVDW TS-H552L Adapter: 3 ID: 0

Read mode : SecureUtilize accurate stream : YesDefeat audio cache : YesMake use of C2 pointers : No

Read offset correction : 6Overread into Lead-In and Lead-Out : NoFill up missing offset samples with silence : YesDelete leading and trailing silent blocks : NoNull samples used in CRC calculations : YesUsed interface : Native Win32 interface for Win NT & 2000Gap handling : Appended to previous track

Used output format : User Defined EncoderSelected bitrate : 1024 kBit/sQuality : HighAdd ID3 tag : NoCommand line compressor : C:\Program Files\FLAC\flac.exeAdditional command line options : -6 -V -T "ARTIST=%a" -T "TITLE=%t" -T "ALBUM=%g" -T "DATE=%y" -T "TRACKNUMBER=%n" -T "GENRE=%m" -T "COMMENT=EAC FLAC -6" %s

TOC of the extracted CD

Track | Start | Length | Start sector | End sector --------------------------------------------------------- 1 | 0:00.00 | 10:40.72 | 0 | 48071 2 | 10:40.72 | 4:18.20 | 48072 | 67441 3 | 14:59.17 | 13:43.50 | 67442 | 129216 4 | 28:42.67 | 14:39.45 | 129217 | 195186 5 | 43:22.37 | 15:39.40 | 195187 | 265651

Track 1

Filename C:\ruskaval\Miles Davis - In Stockholm 1960 Complete (1992) [4CD] {Dragon Records}\CD3\01 - June Night.wav

Pre-gap length 0:00:02.00

Peak level 92.7 % Track quality 100.0 % Test CRC 1C2ACA32 Copy CRC 1C2ACA32 Track not present in AccurateRip database Copy OK

Track 2

Filename C:\ruskaval\Miles Davis - In Stockholm 1960 Complete (1992) [4CD] {Dragon Records}\CD3\02 - Stardust.wav

Peak level 61.5 % Track quality 100.0 % Test CRC F085E0A8 Copy CRC F085E0A8 Track not present in AccurateRip database Copy OK

Track 3

Filename C:\ruskaval\Miles Davis - In Stockholm 1960 Complete (1992) [4CD] {Dragon Records}\CD3\03 - On Green Dolphin Street.wav

Peak level 100.0 % Track quality 100.0 % Test CRC 5E94D252 Copy CRC 5E94D252 Track not present in AccurateRip database Copy OK

Track 4

Filename C:\ruskaval\Miles Davis - In Stockholm 1960 Complete (1992) [4CD] {Dragon Records}\CD3\04 - All Blues , The Theme.wav

Peak level 100.0 % Track quality 99.9 % Test CRC 56935174 Copy CRC 56935174 Track not present in AccurateRip database Copy OK

Track 5

Filename C:\ruskaval\Miles Davis - In Stockholm 1960 Complete (1992) [4CD] {Dragon Records}\CD3\05 - All Of You.wav

Peak level 97.2 % Track quality 100.0 % Test CRC F9B6EFBE Copy CRC F9B6EFBE Track not present in AccurateRip database Copy OK

None of the tracks are present in the AccurateRip database

No errors occurred

End of status report
 
Exact Audio Copy V0.99 prebeta 5 from 4. May 2009

EAC extraction logfile from 2. August 2010, 18:53

Miles Davis / In Stockholm 1960 Complete (CD4)

Used drive : TSSTcorpCD/DVDW TS-H552L Adapter: 3 ID: 0

Read mode : SecureUtilize accurate stream : YesDefeat audio cache : YesMake use of C2 pointers : No

Read offset correction : 6Overread into Lead-In and Lead-Out : NoFill up missing offset samples with silence : YesDelete leading and trailing silent blocks : NoNull samples used in CRC calculations : YesUsed interface : Native Win32 interface for Win NT & 2000Gap handling : Appended to previous track

Used output format : User Defined EncoderSelected bitrate : 1024 kBit/sQuality : HighAdd ID3 tag : NoCommand line compressor : C:\Program Files\FLAC\flac.exeAdditional command line options : -6 -V -T "ARTIST=%a" -T "TITLE=%t" -T "ALBUM=%g" -T "DATE=%y" -T "TRACKNUMBER=%n" -T "GENRE=%m" -T "COMMENT=EAC FLAC -6" %s

TOC of the extracted CD

Track | Start | Length | Start sector | End sector --------------------------------------------------------- 1 | 0:00.00 | 14:37.60 | 0 | 65834 2 | 14:37.60 | 14:50.10 | 65835 | 132594 3 | 29:27.70 | 8:17.50 | 132595 | 169919 4 | 37:45.45 | 7:55.45 | 169920 | 205589 5 | 45:41.15 | 4:17.42 | 205590 | 224906 6 | 49:58.57 | 11:13.05 | 224907 | 275386 7 | 61:11.62 | 14:08.38 | 275387 | 339024

Track 1

Filename C:\ruskaval\Miles Davis - In Stockholm 1960 Complete (1992) [4CD] {Dragon Records}\CD4\01 - Walkin'.wav

Pre-gap length 0:00:02.00

Peak level 95.4 % Track quality 100.0 % Test CRC 10F8F659 Copy CRC 10F8F659 Accurately ripped (confidence 2) [1D164D88] Copy OK

Track 2

Filename C:\ruskaval\Miles Davis - In Stockholm 1960 Complete (1992) [4CD] {Dragon Records}\CD4\02 - Autumn Leaves , The Theme.wav

Peak level 95.4 % Track quality 100.0 % Test CRC C8D210F6 Copy CRC C8D210F6 Accurately ripped (confidence 2) [B3417509] Copy OK

Track 3

Filename C:\ruskaval\Miles Davis - In Stockholm 1960 Complete (1992) [4CD] {Dragon Records}\CD4\03 - Softly As In A Morning Sunrise.wav

Pre-gap length 0:00:02.28

Peak level 85.1 % Track quality 100.0 % Test CRC 03CF3A96 Copy CRC 03CF3A96 Accurately ripped (confidence 3) [8C49D32A] Copy OK

Track 4

Filename C:\ruskaval\Miles Davis - In Stockholm 1960 Complete (1992) [4CD] {Dragon Records}\CD4\04 - Makin' Whopee.wav

Peak level 85.1 % Track quality 100.0 % Test CRC D10AB360 Copy CRC D10AB360 Accurately ripped (confidence 2) [1B435522] Copy OK

Track 5

Filename C:\ruskaval\Miles Davis - In Stockholm 1960 Complete (1992) [4CD] {Dragon Records}\CD4\05 - Lover Man.wav

Peak level 98.1 % Track quality 100.0 % Test CRC AF72BBDE Copy CRC AF72BBDE Accurately ripped (confidence 3) [DA00DBDE] Copy OK

Track 6

Filename C:\ruskaval\Miles Davis - In Stockholm 1960 Complete (1992) [4CD] {Dragon Records}\CD4\06 - If I Were A Bell.wav

Peak level 97.8 % Track quality 99.9 % Test CRC BE718CA6 Copy CRC BE718CA6 Accurately ripped (confidence 3) [BA498C49] Copy OK

Track 7

Filename C:\ruskaval\Miles Davis - In Stockholm 1960 Complete (1992) [4CD] {Dragon Records}\CD4\07 - No Blues , The Theme.wav

Peak level 97.4 % Track quality 100.0 % Test CRC 230D1C10 Copy CRC 230D1C10 Accurately ripped (confidence 2) [040337F3] Copy OK

All tracks accurately ripped

No errors occurred

End of status report
 
REM GENRE JazzREM DATE 1992REM DISCID 52109106REM COMMENT "ExactAudioCopy v0.99pb5"PERFORMER "Miles Davis"TITLE "In Stockholm 1960 Complete (CD1)"FILE "01 - So What.wav" WAVE TRACK 01 AUDIO TITLE "So What" PERFORMER "Miles Davis" INDEX 01 00:00:00FILE "02 - On Green Dolphin Street.wav" WAVE TRACK 02 AUDIO TITLE "On Green Dolphin Street" PERFORMER "Miles Davis" INDEX 01 00:00:00FILE "03 - All Blues , The Theme.wav" WAVE TRACK 03 AUDIO TITLE "All Blues / The Theme" PERFORMER "Miles Davis" INDEX 01 00:00:00FILE "04 - Interview with John Coltrane.wav" WAVE TRACK 04 AUDIO TITLE "Interview with John Coltrane" PERFORMER "Miles Davis" INDEX 01 00:00:00FILE "05 - So What.wav" WAVE TRACK 05 AUDIO TITLE "So What" PERFORMER "Miles Davis" INDEX 01 00:00:00FILE "06 - Fran-Dance.wav" WAVE TRACK 06 AUDIO TITLE "Fran-Dance" PERFORMER "Miles Davis" INDEX 01 00:00:00
 
REM GENRE JazzREM DATE 1992REM DISCID 380EB005REM COMMENT "ExactAudioCopy v0.99pb5"PERFORMER "Miles Davis"TITLE "In Stockholm 1960 Complete (CD2)"FILE "01 - Walkin' , The Theme.wav" WAVE TRACK 01 AUDIO TITLE "Walkin' / The Theme" PERFORMER "Miles Davis" INDEX 01 00:00:00 TRACK 02 AUDIO TITLE "Walkin'" PERFORMER "Miles Davis" INDEX 00 17:19:27FILE "02 - Walkin'.wav" WAVE INDEX 01 00:00:00FILE "03 - Autumn Leaves.wav" WAVE TRACK 03 AUDIO TITLE "Autumn Leaves" PERFORMER "Miles Davis" INDEX 01 00:00:00FILE "04 - So What.wav" WAVE TRACK 04 AUDIO TITLE "So What" PERFORMER "Miles Davis" INDEX 01 00:00:00FILE "05 - 'Round Midnight , The Theme.wav" WAVE TRACK 05 AUDIO TITLE "'Round Midnight / The Theme" PERFORMER "Miles Davis" INDEX 01 00:00:00
 
REM GENRE JazzREM DATE 1992REM DISCID 320DD605REM COMMENT "ExactAudioCopy v0.99pb5"PERFORMER "Miles Davis"TITLE "In Stockholm 1960 Complete (CD3)"FILE "01 - June Night.wav" WAVE TRACK 01 AUDIO TITLE "June Night" PERFORMER "Miles Davis" INDEX 01 00:00:00FILE "02 - Stardust.wav" WAVE TRACK 02 AUDIO TITLE "Stardust" PERFORMER "Miles Davis" INDEX 01 00:00:00FILE "03 - On Green Dolphin Street.wav" WAVE TRACK 03 AUDIO TITLE "On Green Dolphin Street" PERFORMER "Miles Davis" INDEX 01 00:00:00FILE "04 - All Blues , The Theme.wav" WAVE TRACK 04 AUDIO TITLE "All Blues / The Theme" PERFORMER "Miles Davis" INDEX 01 00:00:00FILE "05 - All Of You.wav" WAVE TRACK 05 AUDIO TITLE "All Of You" PERFORMER "Miles Davis" INDEX 01 00:00:00
 
REM GENRE JazzREM DATE 1992REM DISCID 6811A807REM COMMENT "ExactAudioCopy v0.99pb5"PERFORMER "Miles Davis"TITLE "In Stockholm 1960 Complete (CD4)"FILE "01 - Walkin'.wav" WAVE TRACK 01 AUDIO TITLE "Walkin'" PERFORMER "Miles Davis" INDEX 01 00:00:00FILE "02 - Autumn Leaves , The Theme.wav" WAVE TRACK 02 AUDIO TITLE "Autumn Leaves / The Theme" PERFORMER "Miles Davis" INDEX 01 00:00:00 TRACK 03 AUDIO TITLE "Softly As In A Morning Sunrise" PERFORMER "Miles Davis" INDEX 00 14:47:57FILE "03 - Softly As In A Morning Sunrise.wav" WAVE INDEX 01 00:00:00FILE "04 - Makin' Whopee.wav" WAVE TRACK 04 AUDIO TITLE "Makin' Whopee" PERFORMER "Miles Davis" INDEX 01 00:00:00FILE "05 - Lover Man.wav" WAVE TRACK 05 AUDIO TITLE "Lover Man" PERFORMER "Miles Davis" INDEX 01 00:00:00FILE "06 - If I Were A Bell.wav" WAVE TRACK 06 AUDIO TITLE "If I Were A Bell" PERFORMER "Miles Davis" INDEX 01 00:00:00FILE "07 - No Blues , The Theme.wav" WAVE TRACK 07 AUDIO TITLE "No Blues / The Theme" PERFORMER "Miles Davis" INDEX 01 00:00:00


Трекер:  [ 16-Фев-2012 16:41 ]

  

Скачать .torrent

Размер .torrent файла 16 KB


Размер: 1.22 GB
Хэш (hash) релиза: 0efe4543131865432b491c0cfa87c2757e781824

Торренты, похожие на Miles Davis скачать торрент

Форум Название Автор Размер S L Добавлен
Саундтреки к фильмам и мультфильмам (lossless) ·· (Jazz / Soundtrack) Убить трубача / Miles Ahead (Original Motion Picture Soundtrack) (Miles Davis) - 2016, FLAC (tracks+.cue), lossless Galfimbul 554263684529 MB 0 0 1464612092

15:41

30-Май-16

Саундтреки к фильмам и мультфильмам (mp3) ·· (Score/ Jazz) Лифт на эшафот / Ascenseur pour l'échafaud / Lift To The Scaffold (Miles Davis) - 1958, MP3, 320 kbps Galfimbul 212986480203 MB 0 0 1432334908

01:48

23-Май-15

Саундтреки ·· (Score) Горячее местечко / Горячая точка / The Hot Spot (by Jack Nitzsche & John Lee Hooker, Miles Davis) - 1990, FLAC (image+.cue), lossless Galfimbul 198020046189 MB 0 0 1344525540

18:19

9-Авг-12

Jazz, Blues (lossless) ·· (Hard Bop / Cool Jazz) Miles Davis - En Concert avec Europe 1 Olympia (feat. John Coltrane & Sonny Stitt) (1960) [4CD] - 1994, FLAC (tracks+.cue), lossless Umakiro 12889347921.2 GB 0 0 1329400081

16:48

16-Фев-12

Jazz, Blues (lossless) ·· (Hard Bop, Mainstream Jazz) Miles Davis And Sonny Stitt - Olympia (Paris Jazz Concert, 2CD){1960} - 1999, FLAC (tracks+.cue), lossless Umakiro 761458750726 MB 0 0 1329202374

09:52

14-Фев-12

Jazz, Blues (lossless) ·· (Bop, Cool, Jazz) Miles Davis - Great Sessions (Birth of the Cool + Blue Note Records: RVG Edition) - 2006, FLAC (tracks+.cue), lossless Umakiro 514477618491 MB 0 0 1327747783

13:49

28-Янв-12

Jazz, Blues (lossless) ·· (Cool Jazz,Post-Bop) Miles Davis - Collections - 2007, FLAC (image+.cue), lossless Umakiro 320330650305 MB 0 0 1327743587

12:39

28-Янв-12

Саундтреки к фильмам и мультфильмам (lossless) ·· (Soundtrack) Сиеста / Siesta by Miles Davis&Marcus Miller - 1987, APE (image + .cue), lossless Galfimbul 178349406170 MB 0 0 1292268964

22:36

13-Дек-10

Еще никто не оставлял запись к записи скачать торрент Miles Davis . Будь первым!

!Обратная связь