Скачать через торрент музыку The Marsalis Family бесплатно без регистрации torrent

Если у вас наблюдаются проблемы со скриншотами, переходом по ссылками, скачиванием торрентов - проблемы в блокировщике рекламы AdBlock. #хорошегоДня!


Статистика раздачи
Размер:  401 MB   |    Зарегистрирован:  5 лет 8 месяцев   |    .torrent скачан:  25 раз   |   
Раздают:  1  
   
Загрузка...
 
Автор Сообщение

Umakiro

avatar Umakiro


The Marsalis Family - Music Redeems
A Live Recording to Benefit the Ellis Marlsalis Center of Music
Жанр: Hard Bop / Post-Bop
Год издания диска: 2010
Издатель (лейбл): Marsalis Music
Номер по каталогу: 0874946001504
Аудио кодек: WavPack (*.wv)
Тип рипа: image+.cue
Битрейт аудио: lossless
Продолжительность: 1:07:06
Источник (релизер): HQShare (scalamus)
Наличие сканов в содержимом раздачи: нет
Треклист:
01. Introducing (the Marsalis Family) (1:49)
02. Donna Lee (6:56)
03. Wynton and Branford Speak (2:14)
04. Monkey Puzzle (8:24)
05. After (4:56)
06. Syndrome (6:11)
07. Sweet Georgia Brown (5:03)
08. Harry Speaks (2:51)
09. Teo (7:59)
10. The Man and the Ocean (4:15)
11. At the House in Da Pocket (9:52)
12. The 2nd Line (6:36)

Ellis Marsalis III - spoken vocals
Jason Marsalis - whistling, vibraphone, drums
Branford Marsalis - saxophone
Wynton Marsalis - trumpet
Delfeayo Marsalis - trombone
Ellis Marsalis, Harry Connick, Jr. - piano
Herlin Riley - drums

Recorded at the Kennedy Center on June 15, 2009
 
Exact Audio Copy V0.99 prebeta 5 from 4. May 2009

EAC extraction logfile from 2. October 2010, 15:52

The Marsalis Family / Music Redeems

Used drive : HL-DT-STDVDRAM GSA-4165B Adapter: 3 ID: 0

Read mode : SecureUtilize accurate stream : YesDefeat audio cache : YesMake use of C2 pointers : No

Read offset correction : 667Overread into Lead-In and Lead-Out : NoFill up missing offset samples with silence : YesDelete leading and trailing silent blocks : NoNull samples used in CRC calculations : YesUsed interface : Installed external ASPI interface

Used output format : Internal WAV RoutinesSample format : 44.100 Hz; 16 Bit; Stereo

TOC of the extracted CD

Track | Start | Length | Start sector | End sector --------------------------------------------------------- 1 | 0:00.00 | 1:49.23 | 0 | 8197 2 | 1:49.23 | 6:55.74 | 8198 | 39396 3 | 8:45.22 | 2:13.68 | 39397 | 49439 4 | 10:59.15 | 8:23.48 | 49440 | 87212 5 | 19:22.63 | 4:56.14 | 87213 | 109426 6 | 24:19.02 | 6:10.58 | 109427 | 137234 7 | 30:29.60 | 5:03.30 | 137235 | 159989 8 | 35:33.15 | 2:51.20 | 159990 | 172834 9 | 38:24.35 | 7:58.72 | 172835 | 208756 10 | 46:23.32 | 4:14.63 | 208757 | 227869 11 | 50:38.20 | 9:51.53 | 227870 | 272247 12 | 60:29.73 | 6:35.48 | 272248 | 301920

Range status and errors

Selected range

Filename C:\The Marsalis Family - Music Redeems.wav

Peak level 100.0 % Range quality 99.9 % Copy CRC BE8FCE2D Copy OK

No errors occurred

End of status report


Трекер:  [ 16-Фев-2012 16:41 ]

  

Скачать .torrent

Размер .torrent файла 16 KB


Размер: 401 MB
Хэш (hash) релиза: c578d13ef563b6eed401c77264744a0f28b1f929

Еще никто не оставлял запись к записи скачать торрент The Marsalis Family . Будь первым!

!Обратная связь