Скачать через торрент музыку Tomasz Stańko бесплатно без регистрации torrent

Если у вас наблюдаются проблемы со скриншотами, переходом по ссылками, скачиванием торрентов - проблемы в блокировщике рекламы AdBlock. #хорошегоДня!


Статистика раздачи
Размер:  1.1 GB   |    Зарегистрирован:  5 лет 8 месяцев   |    .torrent скачан:  40 раз   |   
Раздают:  1  
   
Загрузка...
 
Автор Сообщение

Umakiro

avatar Umakiro


Tomasz . Stańko
1970 .. 1975 .. 1984 .. 1986 .. 1988
Жанр: Avant-Garde / Post-Bop / Trumpet
Год выпуска диска: 2008
Производитель диска: Metal Mind Productions (MMP 5 CD BOX 006)
Аудио кодек: FLAC
Тип рипа: image+.cue
Битрейт аудио: lossless
Продолжительность: 3:08:58
Источник: HQShare / SurowyTato
Треклист:
01. Czatownik / The Ambusher (5:41)
02. Nieskonczenie Maly / Infinitely Small (4:04)
03. Cry (8:38)
04. Music For K (16:15)
05. Temat (Czatownik) / Theme (The Ambusher) (0:45)

Tomasz Stanko - trumpet
Zbigniew Seifert - alto saxophone
Janusz Muniak - tenor saxophone
Bronislaw Suchanek - bass
Janusz Stefanski - drums, percussion

Recorded in Warsaw Philharmonic Hall in January 1970
01. Dark Awakening (12:41)
02. Twet (7:16)
03. Mintuu Maria (5:15)
04. Man From North (10:25)
05. Night Peace (4:15)

Tomasz Stanko - trumpet
Tomasz Szukalski - tenor and soprano saxophones, bass clarinet
Peter Warren - bass
Edward Vesala - drums

Recorded in April 2, 1974 at PWSM concert hall in Warsaw
01. Alusta (11:35)
02. Daada (7:11)
03. Bushka (5:53)
04. Third Heavy Ballad (6:49)
05. Ahuha (8:36)

Tomasz Stanko - trumpet
Slawomir Kulpowicz - piano
Czeslaw Bartkowski - drums
Witold Szczurek - bass

Recorded in Warsaw, April, May 1982 in Polskie Nagrania
01. Modi Modi (6:19)
02. The First (3:17)
03. Mr. Paul At Marta's Place (4:20)
04. Almost Gama (4:09)
05. Lady Go (5:47)
06. Last Song (2:33)
07. Lakis & Basia (3:09)
08. Violet Liquor (5:15)
09. Les Papillons Gris (0:40)
10. Modi Modi (1:23)

Tomasz Stanko - trumpet
Witold Szczurek - bass guitar, bass
Apostolis Anthimos - drums and percussion, guitars
Tomasz Holuj - percussion

Recorded in Warsaw, June 1984
01. Lady Go (9:43)
02. Asmodeus (7:16)
03. Sunia (3:06)
04. Too Pee (7:32)
05. Switzerland (2:04)
06. Ha, Ha, Ha (7:08)

Tomasz Stanko - trumpet
Janusz Skowron - grand piano, Yamaha DX 7
Witold Szczurek - electric and double bass
Tadeusz Sudnik - synthi AKS and electronics

Recorded by "Le Mobille" at Montreaux Jazz Festival 1987

 
Exact Audio Copy V0.99 prebeta 5 from 4. May 2009

EAC extraction logfile from 24. August 2010, 16:27

Tomasz Stanko Quintet / Music For K

Used drive : PLEXTOR DVDR PX-810SA Adapter: 1 ID: 0

Read mode : SecureUtilize accurate stream : YesDefeat audio cache : YesMake use of C2 pointers : No

Read offset correction : 48Overread into Lead-In and Lead-Out : NoFill up missing offset samples with silence : YesDelete leading and trailing silent blocks : NoNull samples used in CRC calculations : YesUsed interface : Installed external ASPI interface

Used output format : User Defined EncoderSelected bitrate : 768 kBit/sQuality : HighAdd ID3 tag : NoCommand line compressor : E:\Program Files\Exact Audio Copy\FLAC\FLAC.EXEAdditional command line options : --best -V -T "date=%y" -T "genre=%m" %s

TOC of the extracted CD

Track | Start | Length | Start sector | End sector --------------------------------------------------------- 1 | 0:00.00 | 5:40.41 | 0 | 25540 2 | 5:40.41 | 4:04.27 | 25541 | 43867 3 | 9:44.68 | 8:37.52 | 43868 | 82694 4 | 18:22.45 | 16:15.07 | 82695 | 155826 5 | 34:37.52 | 0:44.52 | 155827 | 159178

Range status and errors

Selected range

Filename E:\INCOMING\EAC\Tomasz Stanko Quintet - Music For K.wav

Peak level 98.7 % Range quality 100.0 % Test CRC 1DBEDEB7 Copy CRC 1DBEDEB7 Copy OK

No errors occurred

End of status report
 
Exact Audio Copy V0.99 prebeta 5 from 4. May 2009

EAC extraction logfile from 24. August 2010, 16:46

Tomasz Stanko / Twet

Used drive : PLEXTOR DVDR PX-810SA Adapter: 1 ID: 0

Read mode : SecureUtilize accurate stream : YesDefeat audio cache : YesMake use of C2 pointers : No

Read offset correction : 48Overread into Lead-In and Lead-Out : NoFill up missing offset samples with silence : YesDelete leading and trailing silent blocks : NoNull samples used in CRC calculations : YesUsed interface : Installed external ASPI interface

Used output format : User Defined EncoderSelected bitrate : 768 kBit/sQuality : HighAdd ID3 tag : NoCommand line compressor : E:\Program Files\Exact Audio Copy\FLAC\FLAC.EXEAdditional command line options : --best -V -T "date=%y" -T "genre=%m" %s

TOC of the extracted CD

Track | Start | Length | Start sector | End sector --------------------------------------------------------- 1 | 0:00.00 | 12:41.04 | 0 | 57078 2 | 12:41.04 | 7:15.47 | 57079 | 89750 3 | 19:56.51 | 5:14.68 | 89751 | 113368 4 | 25:11.44 | 10:24.44 | 113369 | 160212 5 | 35:36.13 | 4:15.28 | 160213 | 179365

Range status and errors

Selected range

Filename E:\INCOMING\EAC\Tomasz Stanko - Twet.wav

Peak level 98.7 % Range quality 99.9 % Test CRC 7C24A52B Copy CRC 7C24A52B Copy OK

No errors occurred

End of status report
 
Exact Audio Copy V0.99 prebeta 5 from 4. May 2009

EAC extraction logfile from 24. August 2010, 17:10

Tomasz Stanko / Music 81

Used drive : PLEXTOR DVDR PX-810SA Adapter: 1 ID: 0

Read mode : SecureUtilize accurate stream : YesDefeat audio cache : YesMake use of C2 pointers : No

Read offset correction : 48Overread into Lead-In and Lead-Out : NoFill up missing offset samples with silence : YesDelete leading and trailing silent blocks : NoNull samples used in CRC calculations : YesUsed interface : Installed external ASPI interface

Used output format : User Defined EncoderSelected bitrate : 768 kBit/sQuality : HighAdd ID3 tag : NoCommand line compressor : E:\Program Files\Exact Audio Copy\FLAC\FLAC.EXEAdditional command line options : --best -V -T "date=%y" -T "genre=%m" %s

TOC of the extracted CD

Track | Start | Length | Start sector | End sector --------------------------------------------------------- 1 | 0:00.00 | 11:35.15 | 0 | 52139 2 | 11:35.15 | 7:11.00 | 52140 | 84464 3 | 18:46.15 | 5:52.43 | 84465 | 110907 4 | 24:38.58 | 6:49.09 | 110908 | 141591 5 | 31:27.67 | 8:36.14 | 141592 | 180305

Range status and errors

Selected range

Filename E:\INCOMING\EAC\Tomasz Stanko - Music 81.wav

Peak level 95.6 % Range quality 100.0 % Test CRC 6051EFE3 Copy CRC 6051EFE3 Copy OK

No errors occurred

End of status report
 
Exact Audio Copy V0.99 prebeta 5 from 4. May 2009

EAC extraction logfile from 24. August 2010, 17:42

Tomasz Stanko / Lady Go...

Used drive : PLEXTOR DVDR PX-810SA Adapter: 1 ID: 0

Read mode : SecureUtilize accurate stream : YesDefeat audio cache : YesMake use of C2 pointers : No

Read offset correction : 48Overread into Lead-In and Lead-Out : NoFill up missing offset samples with silence : YesDelete leading and trailing silent blocks : NoNull samples used in CRC calculations : YesUsed interface : Installed external ASPI interface

Used output format : User Defined EncoderSelected bitrate : 768 kBit/sQuality : HighAdd ID3 tag : NoCommand line compressor : E:\Program Files\Exact Audio Copy\FLAC\FLAC.EXEAdditional command line options : --best -V -T "date=%y" -T "genre=%m" %s

TOC of the extracted CD

Track | Start | Length | Start sector | End sector --------------------------------------------------------- 1 | 0:00.00 | 6:19.09 | 0 | 28433 2 | 6:19.09 | 3:16.38 | 28434 | 43171 3 | 9:35.47 | 4:20.04 | 43172 | 62675 4 | 13:55.51 | 4:08.73 | 62676 | 81348 5 | 18:04.49 | 5:46.39 | 81349 | 107337 6 | 23:51.13 | 2:33.25 | 107338 | 118837 7 | 26:24.38 | 3:09.20 | 118838 | 133032 8 | 29:33.58 | 5:14.64 | 133033 | 156646 9 | 34:48.47 | 0:39.62 | 156647 | 159633 10 | 35:28.34 | 1:22.45 | 159634 | 165828

Range status and errors

Selected range

Filename E:\INCOMING\EAC\Tomasz Stanko - Lady Go....wav

Peak level 97.8 % Range quality 100.0 % Test CRC 1E5FEFD7 Copy CRC 1E5FEFD7 Copy OK

No errors occurred

End of status report
 
Exact Audio Copy V0.99 prebeta 5 from 4. May 2009

EAC extraction logfile from 26. August 2010, 9:08

Tomasz Stanko Freelectronic / Switzerland: Live At Montreaux Jazz Festival 1987

Used drive : PLEXTOR DVDR PX-810SA Adapter: 1 ID: 0

Read mode : SecureUtilize accurate stream : YesDefeat audio cache : YesMake use of C2 pointers : No

Read offset correction : 48Overread into Lead-In and Lead-Out : NoFill up missing offset samples with silence : YesDelete leading and trailing silent blocks : NoNull samples used in CRC calculations : YesUsed interface : Installed external ASPI interface

Used output format : User Defined EncoderSelected bitrate : 768 kBit/sQuality : HighAdd ID3 tag : NoCommand line compressor : E:\Program Files\Exact Audio Copy\FLAC\FLAC.EXEAdditional command line options : --best -V -T "date=%y" -T "genre=%m" %s

TOC of the extracted CD

Track | Start | Length | Start sector | End sector --------------------------------------------------------- 1 | 0:00.00 | 9:43.37 | 0 | 43761 2 | 9:43.37 | 7:16.25 | 43762 | 76486 3 | 16:59.62 | 3:05.70 | 76487 | 90431 4 | 20:05.57 | 7:31.57 | 90432 | 124313 5 | 27:37.39 | 2:03.53 | 124314 | 133591 6 | 29:41.17 | 7:07.58 | 133592 | 165674

Range status and errors

Selected range

Filename E:\INCOMING\EAC\Tomasz Stanko Freelectronic - Switzerland.wav

Peak level 97.8 % Range quality 100.0 % Test CRC 7376CEF2 Copy CRC 7376CEF2 Copy OK

No errors occurred

End of status report


Трекер:  [ 16-Фев-2012 16:40 ]

  

Скачать .torrent

Размер .torrent файла 16 KB


Размер: 1.1 GB
Хэш (hash) релиза: 0dbd193473914ea29433f1aa97f5b7cef5e529b3

Еще никто не оставлял запись к записи скачать торрент Tomasz Stańko . Будь первым!

!Обратная связь