Скачать через торрент музыку Chucho Valdés бесплатно без регистрации torrent

Если у вас наблюдаются проблемы со скриншотами, переходом по ссылками, скачиванием торрентов - проблемы в блокировщике рекламы AdBlock. #хорошегоДня!


Статистика раздачи
Размер:  426 MB   |    Зарегистрирован:  5 лет 8 месяцев   |    .torrent скачан:  31 раз   |   
Раздают:  1  
   
Загрузка...
 
Автор Сообщение

Umakiro

avatar Umakiro


Chucho Valdés & The Afro-Cuban Messengers - Chucho's Steps
Жанр: Post-Bop / Afro-Cuban / Straight-Ahead / Piano
Год выпуска диска: 2010
Производитель диска: World Village {WVF479051}
Аудио кодек: FLAC
Тип рипа: tracks+.cue
Битрейт аудио: lossless
Продолжительность: 1:06:02
Треклист:
01. Las dos caras (Both Sides) (8:56)
02. Danzón (9:09)
03. Zawinul's Mambo (11:23)
04. Begin To Be Good (5:14)
05. New Orleans (A Tribute to the Marsalis Family) (4:43)
06. Yansá (7:51)
07. Julián (7:54)
08. Chucho's steps (10:52)

Chucho Valdés - piano
Juan Carlos Rojas Castro - drums
Lázaro Rivero Alarcón - bass
Yaroldy Abreu Robles - percussion
Carlos Manuel Miyares Hernandez - tenor saxophone (except "Begin To Be Good")
Reinaldo Melián Álvarez - trumpet (except "Danzon")
Dreiser Durruthy Bambolé - voice Leader & drums batá (on "Yansa")
Baira Fermina Ramirez, Yemi Menocal, Lázaro Rivero Alarcón, Yaroldy Abreu Robles - chorus (on "Yansa")
 
Exact Audio Copy V0.99 prebeta 4 from 23. January 2008

EAC extraction logfile from 1. September 2010, 20:19

Chucho Valdйs / Chucho's Steps

Used drive : TSSTcorpCDDVDW TS-H653N Adapter: 2 ID: 2

Read mode : SecureUtilize accurate stream : YesDefeat audio cache : YesMake use of C2 pointers : No

Read offset correction : 6Overread into Lead-In and Lead-Out : NoFill up missing offset samples with silence : YesDelete leading and trailing silent blocks : NoNull samples used in CRC calculations : YesUsed interface : Native Win32 interface for Win NT & 2000Gap handling : Appended to previous track

Used output format : User Defined EncoderSelected bitrate : 1024 kBit/sQuality : HighAdd ID3 tag : NoCommand line compressor : C:\Program Files\FLAC -\flac.exeAdditional command line options : -5 -V -T "artist=%a" -T "title=%t" -T "album=%g" -T "date=%y" -T "tracknumber=%n" -T "genre=%m" -T comment="shared by pastafari cubensis" %s

TOC of the extracted CD

Track | Start | Length | Start sector | End sector --------------------------------------------------------- 1 | 0:00.00 | 8:55.71 | 0 | 40195 2 | 8:55.71 | 9:08.49 | 40196 | 81344 3 | 18:04.45 | 11:22.60 | 81345 | 132554 4 | 29:27.30 | 5:14.14 | 132555 | 156118 5 | 34:41.44 | 4:43.33 | 156119 | 177376 6 | 39:25.02 | 7:50.66 | 177377 | 212692 7 | 47:15.68 | 7:54.07 | 212693 | 248249 8 | 55:10.00 | 10:51.42 | 248250 | 297116

Track 1

Filename C:\CD_buffer\Chucho Valdйs - 2010 - Chucho's Steps [FLAC]\01- Las dos caras (Both Sides).wav

Pre-gap length 0:00:02.00

Peak level 100.0 % Track quality 99.9 % Test CRC 06E0DB64 Copy CRC 06E0DB64 Copy OK

Track 2

Filename C:\CD_buffer\Chucho Valdйs - 2010 - Chucho's Steps [FLAC]\02- Danzуn.wav

Pre-gap length 0:00:02.00

Peak level 98.2 % Track quality 100.0 % Test CRC 124805E9 Copy CRC 124805E9 Copy OK

Track 3

Filename C:\CD_buffer\Chucho Valdйs - 2010 - Chucho's Steps [FLAC]\03- Zawinul's Mambo.wav

Pre-gap length 0:00:02.00

Peak level 100.0 % Track quality 100.0 % Test CRC 446F5847 Copy CRC 446F5847 Copy OK

Track 4

Filename C:\CD_buffer\Chucho Valdйs - 2010 - Chucho's Steps [FLAC]\04- Begin To Be Good.wav

Pre-gap length 0:00:02.00

Peak level 100.0 % Track quality 100.0 % Test CRC E40EA4C5 Copy CRC E40EA4C5 Copy OK

Track 5

Filename C:\CD_buffer\Chucho Valdйs - 2010 - Chucho's Steps [FLAC]\05- New Orleans.wav

Pre-gap length 0:00:02.00

Peak level 100.0 % Track quality 100.0 % Test CRC 494EDF1B Copy CRC 494EDF1B Copy OK

Track 6

Filename C:\CD_buffer\Chucho Valdйs - 2010 - Chucho's Steps [FLAC]\06- Yansб.wav

Pre-gap length 0:00:02.00

Peak level 100.0 % Track quality 99.9 % Test CRC ABF12D1D Copy CRC ABF12D1D Copy OK

Track 7

Filename C:\CD_buffer\Chucho Valdйs - 2010 - Chucho's Steps [FLAC]\07- Juliбn.wav

Pre-gap length 0:00:02.00

Peak level 99.7 % Track quality 100.0 % Test CRC EB0482E1 Copy CRC EB0482E1 Copy OK

Track 8

Filename C:\CD_buffer\Chucho Valdйs - 2010 - Chucho's Steps [FLAC]\08- Chucho's steps.wav

Pre-gap length 0:00:02.00

Peak level 100.0 % Track quality 100.0 % Test CRC 8837C147 Copy CRC 8837C147 Copy OK

No errors occurred

End of status report
 
REM GENRE JazzREM DATE 2010REM DISCID 730F7908REM COMMENT "ExactAudioCopy v0.99pb4"PERFORMER "Chucho Valdйs"TITLE "Chucho's Steps"FILE "Chucho Valdйs - 2010 - Chucho's Steps [FLAC]\01- Las dos caras (Both Sides).wav" WAVE TRACK 01 AUDIO TITLE "Las dos caras (Both Sides)" PERFORMER "Chucho Valdйs" INDEX 01 00:00:00 TRACK 02 AUDIO TITLE "Danzуn" PERFORMER "Chucho Valdйs" INDEX 00 08:53:71FILE "Chucho Valdйs - 2010 - Chucho's Steps [FLAC]\02- Danzуn.wav" WAVE INDEX 01 00:00:00 TRACK 03 AUDIO TITLE "Zawinul's Mambo" PERFORMER "Chucho Valdйs" INDEX 00 09:06:49FILE "Chucho Valdйs - 2010 - Chucho's Steps [FLAC]\03- Zawinul's Mambo.wav" WAVE INDEX 01 00:00:00 TRACK 04 AUDIO TITLE "Begin To Be Good" PERFORMER "Chucho Valdйs" INDEX 00 11:20:60FILE "Chucho Valdйs - 2010 - Chucho's Steps [FLAC]\04- Begin To Be Good.wav" WAVE INDEX 01 00:00:00 TRACK 05 AUDIO TITLE "New Orleans" PERFORMER "Chucho Valdйs" INDEX 00 05:12:14FILE "Chucho Valdйs - 2010 - Chucho's Steps [FLAC]\05- New Orleans.wav" WAVE INDEX 01 00:00:00 TRACK 06 AUDIO TITLE "Yansб" PERFORMER "Chucho Valdйs" INDEX 00 04:41:33FILE "Chucho Valdйs - 2010 - Chucho's Steps [FLAC]\06- Yansб.wav" WAVE INDEX 01 00:00:00 TRACK 07 AUDIO TITLE "Juliбn" PERFORMER "Chucho Valdйs" INDEX 00 07:48:66FILE "Chucho Valdйs - 2010 - Chucho's Steps [FLAC]\07- Juliбn.wav" WAVE INDEX 01 00:00:00 TRACK 08 AUDIO TITLE "Chucho's steps" PERFORMER "Chucho Valdйs" INDEX 00 07:52:07FILE "Chucho Valdйs - 2010 - Chucho's Steps [FLAC]\08- Chucho's steps.wav" WAVE INDEX 01 00:00:00


Трекер:  [ 16-Фев-2012 16:39 ]

  

Скачать .torrent

Размер .torrent файла 18 KB


Размер: 426 MB
Хэш (hash) релиза: 0232932175ca3b7be49d15745f31e51019f05c46

Еще никто не оставлял запись к записи скачать торрент Chucho Valdés . Будь первым!

!Обратная связь