Скачать через торрент музыку Charles Mingus & Eric Dolphy Sextet - The Complete Bremen Concert бесплатно без регистрации torrent

Если у вас наблюдаются проблемы со скриншотами, переходом по ссылками, скачиванием торрентов - проблемы в блокировщике рекламы AdBlock. #хорошегоДня!


Статистика раздачи
Размер:  389 MB   |    Зарегистрирован:  5 лет 8 месяцев   |    .torrent скачан:  26 раз   |   
Раздают:  1  
   
Загрузка...
 
Автор Сообщение

Umakiro

avatar Umakiro


Charles Mingus & Eric Dolphy Sextet - The Complete Bremen Concert
Жанр: Avant-Garde Jazz / Third Stream
Год издания диска: 2010
Издатель (лейбл): Jazz Lips
Номер по каталогу: JL 774
Аудио кодек: FLAC
Тип рипа: tracks+.cue
Битрейт аудио: lossless
Продолжительность: 1:57:12
Источник (релизер): AvaxHome (ruskaval)
Наличие сканов в содержимом раздачи: да
Треклист:
Disc 1:
01. A.T.F.W [Art Tatum-Fats Waller] (4:51)
02. Sophisticated Lady (4:09)
03. So Long Eric (26:50)
04. Parkeriana (21:50)
Disc 2:
01. Meditations On Integration (25:29)
02. Fables Of Faubus (34:04)

Charles Mingus - bass, conductor
Johnny Coles - trumpet
Eric Dolphy - alto sax, flute, bass clarinet
Clifford Joran - tenor sax
Jaki Byard - piano
Dannie Richmond - drums

Recorded in Bremen, Germany, Thursday, April 16, 1964
 
Exact Audio Copy V0.99 prebeta 5 from 4. May 2009

EAC extraction logfile from 16. September 2010, 20:46

Charles Mingus & Eric Dolphy Sextet / The Complete Bremen Concert (CD1)

Used drive : TSSTcorpCD/DVDW TS-H552L Adapter: 3 ID: 0

Read mode : SecureUtilize accurate stream : YesDefeat audio cache : YesMake use of C2 pointers : No

Read offset correction : 6Overread into Lead-In and Lead-Out : NoFill up missing offset samples with silence : YesDelete leading and trailing silent blocks : NoNull samples used in CRC calculations : YesUsed interface : Native Win32 interface for Win NT & 2000Gap handling : Appended to previous track

Used output format : User Defined EncoderSelected bitrate : 1024 kBit/sQuality : HighAdd ID3 tag : NoCommand line compressor : C:\Program Files\FLAC\flac.exeAdditional command line options : -6 -V -T "ARTIST=%a" -T "TITLE=%t" -T "ALBUM=%g" -T "DATE=%y" -T "TRACKNUMBER=%n" -T "GENRE=%m" -T "COMMENT=EAC FLAC -6" %s

TOC of the extracted CD

Track | Start | Length | Start sector | End sector --------------------------------------------------------- 1 | 0:00.00 | 4:51.32 | 0 | 21856 2 | 4:51.32 | 4:09.04 | 21857 | 40535 3 | 9:00.36 | 26:49.40 | 40536 | 161250 4 | 35:50.01 | 21:49.72 | 161251 | 259497

Track 1

Filename C:\ruskaval\Charles Mingus & Eric Dolphy Sextet - The Complete Bremen Concert (1964) [2CD] {2010 Jazz Lips}\CD1\01 - A.T.F.W [Art Tatum-Fats Waller].wav

Pre-gap length 0:00:02.00

Peak level 66.6 % Track quality 100.0 % Test CRC 850D043E Copy CRC 850D043E Accurately ripped (confidence 2) [5C2D2721] Copy OK

Track 2

Filename C:\ruskaval\Charles Mingus & Eric Dolphy Sextet - The Complete Bremen Concert (1964) [2CD] {2010 Jazz Lips}\CD1\02 - Sophisticated Lady.wav

Peak level 62.7 % Track quality 99.9 % Test CRC D55A5DD7 Copy CRC D55A5DD7 Accurately ripped (confidence 2) [23624AD2] Copy OK

Track 3

Filename C:\ruskaval\Charles Mingus & Eric Dolphy Sextet - The Complete Bremen Concert (1964) [2CD] {2010 Jazz Lips}\CD1\03 - So Long Eric.wav

Peak level 97.7 % Track quality 99.9 % Test CRC 45F77116 Copy CRC 45F77116 Accurately ripped (confidence 2) [0C2A7B43] Copy OK

Track 4

Filename C:\ruskaval\Charles Mingus & Eric Dolphy Sextet - The Complete Bremen Concert (1964) [2CD] {2010 Jazz Lips}\CD1\04 - Parkeriana.wav

Peak level 68.2 % Track quality 100.0 % Test CRC FAF0AE19 Copy CRC FAF0AE19 Accurately ripped (confidence 2) [6C6D98CB] Copy OK

All tracks accurately ripped

No errors occurred

End of status report
 
Exact Audio Copy V0.99 prebeta 5 from 4. May 2009

EAC extraction logfile from 16. September 2010, 20:54

Charles Mingus & Eric Dolphy Sextet / The Complete Bremen Concert (CD2)

Used drive : TSSTcorpCD/DVDW TS-H552L Adapter: 3 ID: 0

Read mode : SecureUtilize accurate stream : YesDefeat audio cache : YesMake use of C2 pointers : No

Read offset correction : 6Overread into Lead-In and Lead-Out : NoFill up missing offset samples with silence : YesDelete leading and trailing silent blocks : NoNull samples used in CRC calculations : YesUsed interface : Native Win32 interface for Win NT & 2000Gap handling : Appended to previous track

Used output format : User Defined EncoderSelected bitrate : 1024 kBit/sQuality : HighAdd ID3 tag : NoCommand line compressor : C:\Program Files\FLAC\flac.exeAdditional command line options : -6 -V -T "ARTIST=%a" -T "TITLE=%t" -T "ALBUM=%g" -T "DATE=%y" -T "TRACKNUMBER=%n" -T "GENRE=%m" -T "COMMENT=EAC FLAC -6" %s

TOC of the extracted CD

Track | Start | Length | Start sector | End sector --------------------------------------------------------- 1 | 0:00.00 | 25:28.45 | 0 | 114644 2 | 25:28.45 | 34:03.66 | 114645 | 267935

Track 1

Filename C:\ruskaval\Charles Mingus & Eric Dolphy Sextet - The Complete Bremen Concert (1964) [2CD] {2010 Jazz Lips}\CD2\01 - Meditations On Integration.wav

Pre-gap length 0:00:02.00

Peak level 92.1 % Track quality 100.0 % Test CRC 42865D6F Copy CRC 42865D6F Accurately ripped (confidence 2) [5EF364F8] Copy OK

Track 2

Filename C:\ruskaval\Charles Mingus & Eric Dolphy Sextet - The Complete Bremen Concert (1964) [2CD] {2010 Jazz Lips}\CD2\02 - Fables Of Faubus.wav

Peak level 83.4 % Track quality 100.0 % Test CRC F205AC6F Copy CRC F205AC6F Accurately ripped (confidence 2) [7F320CF8] Copy OK

All tracks accurately ripped

No errors occurred

End of status report
 
REM GENRE JazzREM DATE 2010REM DISCID 250D8304REM COMMENT "ExactAudioCopy v0.99pb5"PERFORMER "Charles Mingus & Eric Dolphy Sextet"TITLE "The Complete Bremen Concert (CD1)"FILE "01 - A.T.F.W [Art Tatum-Fats Waller].wav" WAVE TRACK 01 AUDIO TITLE "A.T.F.W [Art Tatum-Fats Waller] " PERFORMER "Charles Mingus & Eric Dolphy Sextet" INDEX 01 00:00:00FILE "02 - Sophisticated Lady.wav" WAVE TRACK 02 AUDIO TITLE "Sophisticated Lady" PERFORMER "Charles Mingus & Eric Dolphy Sextet" INDEX 01 00:00:00FILE "03 - So Long Eric.wav" WAVE TRACK 03 AUDIO TITLE "So Long Eric" PERFORMER "Charles Mingus & Eric Dolphy Sextet" INDEX 01 00:00:00FILE "04 - Parkeriana.wav" WAVE TRACK 04 AUDIO TITLE "Parkeriana" PERFORMER "Charles Mingus & Eric Dolphy Sextet" INDEX 01 00:00:00
 
REM GENRE JazzREM DATE 2010REM DISCID 0B0DF402REM COMMENT "ExactAudioCopy v0.99pb5"PERFORMER "Charles Mingus & Eric Dolphy Sextet"TITLE "The Complete Bremen Concert (CD2)"FILE "01 - Meditations On Integration.wav" WAVE TRACK 01 AUDIO TITLE "Meditations On Integration" PERFORMER "Charles Mingus & Eric Dolphy Sextet" INDEX 01 00:00:00FILE "02 - Fables Of Faubus.wav" WAVE TRACK 02 AUDIO TITLE "Fables Of Faubus" PERFORMER "Charles Mingus & Eric Dolphy Sextet" INDEX 01 00:00:00


Трекер:  [ 16-Фев-2012 16:39 ]

  

Скачать .torrent

Размер .torrent файла 17 KB


Размер: 389 MB
Хэш (hash) релиза: 291ba96d890fe760898560e6a02fc97a14e0ba4c

Еще никто не оставлял запись к записи скачать торрент Charles Mingus & Eric Dolphy Sextet - The Complete Bremen Concert . Будь первым!

!Обратная связь