Скачать через торрент музыку Michael Chertock - Cinematic Piano: Solo Piano Music from the Movies - 1994, FLAC бесплатно без регистрации torrent

Если у вас наблюдаются проблемы со скриншотами, переходом по ссылками, скачиванием торрентов - проблемы в блокировщике рекламы AdBlock. #хорошегоДня!


Статистика раздачи
Размер:  262 MB   |    Зарегистрирован:  5 лет 8 месяцев   |    .torrent скачан:  29 раз   |   
Раздают:  1  
   
Загрузка...
 
Автор Сообщение

Umakiro

avatar Umakiro


Michael Chertock - Cinematic Piano: Solo Piano Music from the Movies
Жанр: Piano Solo
Год издания диска: 1994
Издатель (лейбл): Telarc
Номер по каталогу: CD-80357
Аудио кодек: FLAC (*.flac)
Тип рипа: tracks+.cue
Битрейт аудио: lossless
Продолжительность: 0:56:34
Источник (релизер): HQShare (supang)
Наличие сканов в содержимом раздачи: да
Треклист:
01. The Piano - The Heart Asks Pleasure First (2:59)
02. The Piano - Big My Secret (3:04)
03. The Piano - The Mood That Passes Through You (2:13)
04. Howards End - Bridal Lullaby (2:28)
05. Schindler's List - Main Theme (3:00)
06. Frankie and Johnny - Clair de Lune (4:50)
07. On Golden Pond - Main Theme (3:49)
08. Cinema Paradiso - Main Theme (3:19)
09. The Firm - Mitch and Abby (2:38)
10. The Firm - Blues: The Death of Love and Trust (3:29)
11. E.T. - The Extra-Terrestrial - Medley: E.T. and Elliot / Adventure on Earth / Over the Moon (4:21)
12. The Accompanist - Von fremden Ländern und Menschen from Kinderszenen (2:02)
13. Out of Africa - Have You Got a Story for Me? (2:10)
14. Love Story - Theme (3:29)
15. Jennifer 8 - Main Title (4:01)
16. My Dinner with Andre - Gymnopédie No.1 (3:08)
17. Somewhere in Time - Theme (3:01)
18. Casablanca - As Time Goes By (2:33)
 
Exact Audio Copy V0.99 prebeta 5 from 4. May 2009

EAC extraction logfile from 3. September 2010, 13:30

Various Composers / Cinematic Piano - Solo Piano Music from the Movies

Used drive : PLEXTOR CD-R PREMIUM2 Adapter: 1 ID: 0

Read mode : SecureUtilize accurate stream : YesDefeat audio cache : YesMake use of C2 pointers : No

Read offset correction : 30Overread into Lead-In and Lead-Out : YesFill up missing offset samples with silence : YesDelete leading and trailing silent blocks : NoNull samples used in CRC calculations : YesUsed interface : Installed external ASPI interfaceGap handling : Appended to previous track

Used output format : Internal WAV RoutinesSample format : 44.100 Hz; 16 Bit; Stereo

TOC of the extracted CD

Track | Start | Length | Start sector | End sector --------------------------------------------------------- 1 | 0:00.00 | 2:58.38 | 0 | 13387 2 | 2:58.38 | 3:04.37 | 13388 | 27224 3 | 6:03.00 | 2:12.60 | 27225 | 37184 4 | 8:15.60 | 2:28.18 | 37185 | 48302 5 | 10:44.03 | 3:00.30 | 48303 | 61832 6 | 13:44.33 | 4:50.30 | 61833 | 83612 7 | 18:34.63 | 3:48.42 | 83613 | 100754 8 | 22:23.30 | 3:18.38 | 100755 | 115642 9 | 25:41.68 | 2:38.35 | 115643 | 127527 10 | 28:20.28 | 3:28.47 | 127528 | 143174 11 | 31:49.00 | 4:21.30 | 143175 | 162779 12 | 36:10.30 | 2:02.23 | 162780 | 171952 13 | 38:12.53 | 2:10.05 | 171953 | 181707 14 | 40:22.58 | 3:28.62 | 181708 | 197369 15 | 43:51.45 | 4:00.60 | 197370 | 215429 16 | 47:52.30 | 3:07.58 | 215430 | 229512 17 | 51:00.13 | 3:00.60 | 229513 | 243072 18 | 54:00.73 | 2:33.15 | 243073 | 254562

Track 1

Filename C:\_supang_\Michael Chertock -1994- Cinematic Piano - Solo Piano Music from the Movies {Telarc CD-80357}\01. The Piano - The Heart Asks Pleasure First.wav

Pre-gap length 0:00:02.00

Peak level 98.2 % Track quality 100.0 % Test CRC C2AB8C86 Copy CRC C2AB8C86 Cannot be verified as accurate (confidence 2) [62B41C2E], AccurateRip returned [5C0679B5] Copy OK

Track 2

Filename C:\_supang_\Michael Chertock -1994- Cinematic Piano - Solo Piano Music from the Movies {Telarc CD-80357}\02. The Piano - Big My Secret.wav

Pre-gap length 0:00:05.25

Peak level 59.7 % Track quality 100.0 % Test CRC CF24581B Copy CRC CF24581B Cannot be verified as accurate (confidence 2) [AD6E9467], AccurateRip returned [F55A671B] Copy OK

Track 3

Filename C:\_supang_\Michael Chertock -1994- Cinematic Piano - Solo Piano Music from the Movies {Telarc CD-80357}\03. The Piano - The Mood That Passes Through You.wav

Pre-gap length 0:00:05.62

Peak level 36.1 % Track quality 100.0 % Test CRC BF940F9C Copy CRC BF940F9C Cannot be verified as accurate (confidence 2) [A93A0958], AccurateRip returned [D42E6D21] Copy OK

Track 4

Filename C:\_supang_\Michael Chertock -1994- Cinematic Piano - Solo Piano Music from the Movies {Telarc CD-80357}\04. Howards End - Bridal Lullaby.wav

Pre-gap length 0:00:07.10

Peak level 51.9 % Track quality 100.0 % Test CRC 6FEB9BA1 Copy CRC 6FEB9BA1 Cannot be verified as accurate (confidence 2) [F2CE09FD], AccurateRip returned [498D4642] Copy OK

Track 5

Filename C:\_supang_\Michael Chertock -1994- Cinematic Piano - Solo Piano Music from the Movies {Telarc CD-80357}\05. Schindler's List - Main Theme.wav

Pre-gap length 0:00:06.28

Peak level 60.3 % Track quality 100.0 % Test CRC 8FD460BA Copy CRC 8FD460BA Cannot be verified as accurate (confidence 2) [6775502C], AccurateRip returned [325CBDE2] Copy OK

Track 6

Filename C:\_supang_\Michael Chertock -1994- Cinematic Piano - Solo Piano Music from the Movies {Telarc CD-80357}\06. Frankie and Johnny - Clair de Lune.wav

Pre-gap length 0:00:06.20

Peak level 56.0 % Track quality 100.0 % Test CRC D6976710 Copy CRC D6976710 Cannot be verified as accurate (confidence 2) [5FD8C6E1], AccurateRip returned [145D5F09] Copy OK

Track 7

Filename C:\_supang_\Michael Chertock -1994- Cinematic Piano - Solo Piano Music from the Movies {Telarc CD-80357}\07. On Golden Pond - Main Theme.wav

Pre-gap length 0:00:06.13

Peak level 57.3 % Track quality 100.0 % Test CRC 62917E78 Copy CRC 62917E78 Cannot be verified as accurate (confidence 2) [5A6C1265], AccurateRip returned [2B49B70E] Copy OK

Track 8

Filename C:\_supang_\Michael Chertock -1994- Cinematic Piano - Solo Piano Music from the Movies {Telarc CD-80357}\08. Cinema Paradiso - Main Theme.wav

Pre-gap length 0:00:06.17

Peak level 54.6 % Track quality 100.0 % Test CRC 098289E1 Copy CRC 098289E1 Cannot be verified as accurate (confidence 2) [1BB6FD45], AccurateRip returned [07A62E29] Copy OK

Track 9

Filename C:\_supang_\Michael Chertock -1994- Cinematic Piano - Solo Piano Music from the Movies {Telarc CD-80357}\09. The Firm - Mitch and Abby.wav

Pre-gap length 0:00:05.55

Peak level 37.7 % Track quality 100.0 % Test CRC F6C46863 Copy CRC F6C46863 Cannot be verified as accurate (confidence 2) [6CDCC6EC], AccurateRip returned [0C951C37] Copy OK

Track 10

Filename C:\_supang_\Michael Chertock -1994- Cinematic Piano - Solo Piano Music from the Movies {Telarc CD-80357}\10. The Firm - Blues The Death of Love and Trust.wav

Pre-gap length 0:00:05.53

Peak level 64.8 % Track quality 100.0 % Test CRC 680C2BF1 Copy CRC 680C2BF1 Cannot be verified as accurate (confidence 2) [7967404B], AccurateRip returned [D2698773] Copy OK

Track 11

Filename C:\_supang_\Michael Chertock -1994- Cinematic Piano - Solo Piano Music from the Movies {Telarc CD-80357}\11. E.T. ~ The Extra-Terrestrial - Medley.wav

Pre-gap length 0:00:06.62

Peak level 98.2 % Track quality 100.0 % Test CRC E6238CB2 Copy CRC E6238CB2 Cannot be verified as accurate (confidence 2) [7C88E293], AccurateRip returned [410661CC] Copy OK

Track 12

Filename C:\_supang_\Michael Chertock -1994- Cinematic Piano - Solo Piano Music from the Movies {Telarc CD-80357}\12. The Accompanist - Von fremden Landern und Menschen.wav

Pre-gap length 0:00:07.17

Peak level 27.9 % Track quality 100.0 % Test CRC D90981FD Copy CRC D90981FD Cannot be verified as accurate (confidence 2) [49583C3D], AccurateRip returned [634412B9] Copy OK

Track 13

Filename C:\_supang_\Michael Chertock -1994- Cinematic Piano - Solo Piano Music from the Movies {Telarc CD-80357}\13. Out of Africa - Have You Got a Story for Me.wav

Pre-gap length 0:00:06.40

Peak level 22.0 % Track quality 100.0 % Test CRC C7D13B8F Copy CRC C7D13B8F Cannot be verified as accurate (confidence 2) [B2C8CA22], AccurateRip returned [E3216B4D] Copy OK

Track 14

Filename C:\_supang_\Michael Chertock -1994- Cinematic Piano - Solo Piano Music from the Movies {Telarc CD-80357}\14. Love Story - Theme.wav

Pre-gap length 0:00:06.45

Peak level 74.5 % Track quality 100.0 % Test CRC AA028A50 Copy CRC AA028A50 Cannot be verified as accurate (confidence 2) [C28DF2A2], AccurateRip returned [F142BCD4] Copy OK

Track 15

Filename C:\_supang_\Michael Chertock -1994- Cinematic Piano - Solo Piano Music from the Movies {Telarc CD-80357}\15. Jennifer 8 - Main Title.wav

Pre-gap length 0:00:06.32

Peak level 64.7 % Track quality 100.0 % Test CRC E6280746 Copy CRC E6280746 Cannot be verified as accurate (confidence 2) [FF0F4419], AccurateRip returned [1B5292A9] Copy OK

Track 16

Filename C:\_supang_\Michael Chertock -1994- Cinematic Piano - Solo Piano Music from the Movies {Telarc CD-80357}\16. My Dinner with Andre - Gymnopedie No.1.wav

Pre-gap length 0:00:06.17

Peak level 23.1 % Track quality 100.0 % Test CRC B9B4B630 Copy CRC B9B4B630 Cannot be verified as accurate (confidence 2) [BCCDE60C], AccurateRip returned [C1102E60] Copy OK

Track 17

Filename C:\_supang_\Michael Chertock -1994- Cinematic Piano - Solo Piano Music from the Movies {Telarc CD-80357}\17. Somewhere in Time - Theme.wav

Pre-gap length 0:00:07.00

Peak level 97.7 % Track quality 100.0 % Test CRC A22A81EA Copy CRC A22A81EA Cannot be verified as accurate (confidence 2) [BC3478D1], AccurateRip returned [D6C65A59] Copy OK

Track 18

Filename C:\_supang_\Michael Chertock -1994- Cinematic Piano - Solo Piano Music from the Movies {Telarc CD-80357}\18. Casablanca - As Time Goes By.wav

Pre-gap length 0:00:06.23

Peak level 52.0 % Track quality 100.0 % Test CRC 9E30CBFE Copy CRC 9E30CBFE Cannot be verified as accurate (confidence 2) [D36C4DD8], AccurateRip returned [40A6BD46] Copy OK

No tracks could be verified as accurateYou may have a different pressing from the one(s) in the database

No errors occurred

End of status report
 
REM GENRE SoundtrackREM DATE 1994REM DISCID E80D4212REM COMMENT "Telarc CD-80357"PERFORMER "Various Composers"TITLE "Cinematic Piano - Solo Piano Music from the Movies"FILE "01. The Piano - The Heart Asks Pleasure First.wav" WAVE TRACK 01 AUDIO TITLE "The Piano - The Heart Asks Pleasure First" PERFORMER "Michael Chertock, piano" INDEX 01 00:00:00 TRACK 02 AUDIO TITLE "The Piano - Big My Secret" PERFORMER "Michael Chertock, piano" INDEX 00 02:53:13FILE "02. The Piano - Big My Secret.wav" WAVE INDEX 01 00:00:00 TRACK 03 AUDIO TITLE "The Piano - The Mood That Passes Through You" PERFORMER "Michael Chertock, piano" INDEX 00 02:58:50FILE "03. The Piano - The Mood That Passes Through You.wav" WAVE INDEX 01 00:00:00 TRACK 04 AUDIO TITLE "Howards End - Bridal Lullaby" PERFORMER "Michael Chertock, piano" INDEX 00 02:05:50FILE "04. Howards End - Bridal Lullaby.wav" WAVE INDEX 01 00:00:00 TRACK 05 AUDIO TITLE "Schindler's List - Main Theme" PERFORMER "Michael Chertock, piano" INDEX 00 02:21:65FILE "05. Schindler's List - Main Theme.wav" WAVE INDEX 01 00:00:00 TRACK 06 AUDIO TITLE "Frankie and Johnny - Clair de Lune" PERFORMER "Michael Chertock, piano" INDEX 00 02:54:10FILE "06. Frankie and Johnny - Clair de Lune.wav" WAVE INDEX 01 00:00:00 TRACK 07 AUDIO TITLE "On Golden Pond - Main Theme" PERFORMER "Michael Chertock, piano" INDEX 00 04:44:17FILE "07. On Golden Pond - Main Theme.wav" WAVE INDEX 01 00:00:00 TRACK 08 AUDIO TITLE "Cinema Paradiso - Main Theme" PERFORMER "Michael Chertock, piano" INDEX 00 03:42:25FILE "08. Cinema Paradiso - Main Theme.wav" WAVE INDEX 01 00:00:00 TRACK 09 AUDIO TITLE "The Firm - Mitch and Abby" PERFORMER "Michael Chertock, piano" INDEX 00 03:12:58FILE "09. The Firm - Mitch and Abby.wav" WAVE INDEX 01 00:00:00 TRACK 10 AUDIO TITLE "The Firm - Blues: The Death of Love and Trust" PERFORMER "Michael Chertock, piano" INDEX 00 02:32:57FILE "10. The Firm - Blues The Death of Love and Trust.wav" WAVE INDEX 01 00:00:00 TRACK 11 AUDIO TITLE "E.T.: The Extra-Terrestrial - Medley: E.T. and Elliot / Adventure on Earth / Over the Moon" PERFORMER "Michael Chertock, piano" INDEX 00 03:21:60FILE "11. E.T. ~ The Extra-Terrestrial - Medley.wav" WAVE INDEX 01 00:00:00 TRACK 12 AUDIO TITLE "The Accompanist - Von fremden Landern und Menschen from Kinderszenen" PERFORMER "Michael Chertock, piano" INDEX 00 04:14:13FILE "12. The Accompanist - Von fremden Landern und Menschen.wav" WAVE INDEX 01 00:00:00 TRACK 13 AUDIO TITLE "Out of Africa - Have You Got a Story for Me?" PERFORMER "Michael Chertock, piano" INDEX 00 01:55:58FILE "13. Out of Africa - Have You Got a Story for Me.wav" WAVE INDEX 01 00:00:00 TRACK 14 AUDIO TITLE "Love Story - Theme" PERFORMER "Michael Chertock, piano" INDEX 00 02:03:35FILE "14. Love Story - Theme.wav" WAVE INDEX 01 00:00:00 TRACK 15 AUDIO TITLE "Jennifer 8 - Main Title" PERFORMER "Michael Chertock, piano" INDEX 00 03:22:30FILE "15. Jennifer 8 - Main Title.wav" WAVE INDEX 01 00:00:00 TRACK 16 AUDIO TITLE "My Dinner with Andre - Gymnopedie No.1" PERFORMER "Michael Chertock, piano" INDEX 00 03:54:43FILE "16. My Dinner with Andre - Gymnopedie No.1.wav" WAVE INDEX 01 00:00:00 TRACK 17 AUDIO TITLE "Somewhere in Time - Theme" PERFORMER "Michael Chertock, piano" INDEX 00 03:00:58FILE "17. Somewhere in Time - Theme.wav" WAVE INDEX 01 00:00:00 TRACK 18 AUDIO TITLE "Casablanca - As Time Goes By" PERFORMER "Michael Chertock, piano" INDEX 00 02:54:37FILE "18. Casablanca - As Time Goes By.wav" WAVE INDEX 01 00:00:00


Трекер:  [ 16-Фев-2012 16:38 ]

  

Скачать .torrent

Размер .torrent файла 13 KB


Размер: 262 MB
Хэш (hash) релиза: 70ad53ae0bd5fef0a4d99c69bdfe2fceba5e509d

Еще никто не оставлял запись к записи скачать торрент Michael Chertock - Cinematic Piano: Solo Piano Music from the Movies - 1994, FLAC . Будь первым!

!Обратная связь