Скачать через торрент музыку Bill Evans - From The 70s бесплатно без регистрации torrent

Если у вас наблюдаются проблемы со скриншотами, переходом по ссылками, скачиванием торрентов - проблемы в блокировщике рекламы AdBlock. #хорошегоДня!


Статистика раздачи
Размер:  278 MB   |    Зарегистрирован:  5 лет 8 месяцев   |    .torrent скачан:  31 раз   |   
Раздают:  1  
   
Загрузка...
 
Автор Сообщение

Umakiro

avatar Umakiro


Bill Evans - From The 70's
Жанр: Post-Bop / Piano
Год выпуска диска: 2002
Производитель диска: Fantasy/OJC (OJCCD-10969-2 / F-9630)
Аудио кодек: FLAC
Тип рипа: tracks+.cue
Битрейт аудио: lossless
Продолжительность: 0:51:58
Источник: AvaxHome / ruskaval
Треклист:
01. Gone With The Wind (take 3) (5:18)
02. Hi-Lili, Hi-Lo (take 6) (7:08)
03. The Nature Of Things (take 9) (3:29)
04. Show-Type Tune (take 1) (4:54)
05. Are You All The Things (take 3) (5:15)
06. Up With The Lark (6:46)
07. Quiet Now (4:59)
08. Gloria's Step (6:53)
09. Elsa (7:16)

Bill Evans - piano
Eddie Gomez - bass
Marty Morrell - drums [#6-9]

Recorded in perfomance by Jim Stern at Shelly's Manne-Hole, Los Angeles CA; November 15, 1973
#9 recorded in perfomance by Michael DeLugg at the Village Vanguard, NYC; January 11-12, 1974
 
Exact Audio Copy V0.99 prebeta 5 from 4. May 2009

EAC extraction logfile from 6. August 2010, 23:17

Bill Evans / From The 70's

Used drive : TSSTcorpCD/DVDW TS-H552L Adapter: 3 ID: 0

Read mode : SecureUtilize accurate stream : YesDefeat audio cache : YesMake use of C2 pointers : No

Read offset correction : 6Overread into Lead-In and Lead-Out : NoFill up missing offset samples with silence : YesDelete leading and trailing silent blocks : NoNull samples used in CRC calculations : YesUsed interface : Native Win32 interface for Win NT & 2000Gap handling : Appended to previous track

Used output format : User Defined EncoderSelected bitrate : 1024 kBit/sQuality : HighAdd ID3 tag : NoCommand line compressor : C:\Program Files\FLAC\flac.exeAdditional command line options : -6 -V -T "ARTIST=%a" -T "TITLE=%t" -T "ALBUM=%g" -T "DATE=%y" -T "TRACKNUMBER=%n" -T "GENRE=%m" -T "COMMENT=EAC FLAC -6" %s

TOC of the extracted CD

Track | Start | Length | Start sector | End sector --------------------------------------------------------- 1 | 0:00.00 | 5:17.72 | 0 | 23846 2 | 5:17.72 | 7:07.73 | 23847 | 55944 3 | 12:25.70 | 3:29.25 | 55945 | 71644 4 | 15:55.20 | 4:54.05 | 71645 | 93699 5 | 20:49.25 | 5:14.47 | 93700 | 117296 6 | 26:03.72 | 6:46.18 | 117297 | 147764 7 | 32:50.15 | 4:58.57 | 147765 | 170171 8 | 37:48.72 | 6:52.43 | 170172 | 201114 9 | 44:41.40 | 7:16.02 | 201115 | 233816

Track 1

Filename C:\ruskaval\Bill Evans - From The 70's (1974) {2002 Fantasy Remaster}\01 - Gone With The Wind (take 3).wav

Pre-gap length 0:00:02.00

Peak level 98.5 % Track quality 100.0 % Test CRC 1ECB56D2 Copy CRC 1ECB56D2 Accurately ripped (confidence 1) [4B998A9B] Copy OK

Track 2

Filename C:\ruskaval\Bill Evans - From The 70's (1974) {2002 Fantasy Remaster}\02 - Hi-Lili, Hi-Lo (take 6).wav

Pre-gap length 0:00:02.17

Peak level 98.9 % Track quality 100.0 % Test CRC E6505450 Copy CRC E6505450 Accurately ripped (confidence 1) [46ED814C] Copy OK

Track 3

Filename C:\ruskaval\Bill Evans - From The 70's (1974) {2002 Fantasy Remaster}\03 - The Nature Of Things (take 9).wav

Pre-gap length 0:00:01.74

Peak level 98.4 % Track quality 100.0 % Test CRC 98DB187D Copy CRC 98DB187D Accurately ripped (confidence 1) [8F0F8ACD] Copy OK

Track 4

Filename C:\ruskaval\Bill Evans - From The 70's (1974) {2002 Fantasy Remaster}\04 - Show-Type Tune (take 1).wav

Pre-gap length 0:00:01.66

Peak level 98.4 % Track quality 100.0 % Test CRC 0FA69752 Copy CRC 0FA69752 Accurately ripped (confidence 1) [AA230E44] Copy OK

Track 5

Filename C:\ruskaval\Bill Evans - From The 70's (1974) {2002 Fantasy Remaster}\05 - Are You All The Things (take 3).wav

Pre-gap length 0:00:02.09

Peak level 98.7 % Track quality 100.0 % Test CRC 71B7F9F5 Copy CRC 71B7F9F5 Accurately ripped (confidence 1) [FE47609A] Copy OK

Track 6

Filename C:\ruskaval\Bill Evans - From The 70's (1974) {2002 Fantasy Remaster}\06 - Up With The Lark.wav

Pre-gap length 0:00:02.01

Peak level 99.5 % Track quality 100.0 % Test CRC 71653AE9 Copy CRC 71653AE9 Accurately ripped (confidence 1) [1B4DDE7A] Copy OK

Track 7

Filename C:\ruskaval\Bill Evans - From The 70's (1974) {2002 Fantasy Remaster}\07 - Quiet Now.wav

Pre-gap length 0:00:00.02

Peak level 99.4 % Track quality 100.0 % Test CRC 1128F49C Copy CRC 1128F49C Accurately ripped (confidence 1) [136F407F] Copy OK

Track 8

Filename C:\ruskaval\Bill Evans - From The 70's (1974) {2002 Fantasy Remaster}\08 - Gloria's Step.wav

Pre-gap length 0:00:01.41

Peak level 99.0 % Track quality 100.0 % Test CRC 320B1C6D Copy CRC 320B1C6D Accurately ripped (confidence 1) [279A620B] Copy OK

Track 9

Filename C:\ruskaval\Bill Evans - From The 70's (1974) {2002 Fantasy Remaster}\09 - Elsa.wav

Pre-gap length 0:00:00.01

Peak level 98.6 % Track quality 99.9 % Test CRC 93FAC0BC Copy CRC 93FAC0BC Accurately ripped (confidence 1) [059474E3] Copy OK

All tracks accurately ripped

No errors occurred

End of status report
 
REM GENRE JazzREM DATE 1974REM DISCID 810C2D09REM COMMENT "ExactAudioCopy v0.99pb5"PERFORMER "Bill Evans"TITLE "From The 70's"FILE "01 - Gone With The Wind (take 3).wav" WAVE TRACK 01 AUDIO TITLE "Gone With The Wind (take 3)" PERFORMER "Bill Evans" INDEX 01 00:00:00 TRACK 02 AUDIO TITLE "Hi-Lili, Hi-Lo (take 6)" PERFORMER "Bill Evans" INDEX 00 05:15:55FILE "02 - Hi-Lili, Hi-Lo (take 6).wav" WAVE INDEX 01 00:00:00 TRACK 03 AUDIO TITLE "The Nature Of Things (take 9)" PERFORMER "Bill Evans" INDEX 00 07:05:74FILE "03 - The Nature Of Things (take 9).wav" WAVE INDEX 01 00:00:00 TRACK 04 AUDIO TITLE "Show-Type Tune (take 1)" PERFORMER "Bill Evans" INDEX 00 03:27:34FILE "04 - Show-Type Tune (take 1).wav" WAVE INDEX 01 00:00:00 TRACK 05 AUDIO TITLE "Are You All The Things (take 3)" PERFORMER "Bill Evans" INDEX 00 04:51:71FILE "05 - Are You All The Things (take 3).wav" WAVE INDEX 01 00:00:00 TRACK 06 AUDIO TITLE "Up With The Lark" PERFORMER "Bill Evans" INDEX 00 05:12:46FILE "06 - Up With The Lark.wav" WAVE INDEX 01 00:00:00 TRACK 07 AUDIO TITLE "Quiet Now" PERFORMER "Bill Evans" INDEX 00 06:46:16FILE "07 - Quiet Now.wav" WAVE INDEX 01 00:00:00 TRACK 08 AUDIO TITLE "Gloria's Step" PERFORMER "Bill Evans" INDEX 00 04:57:16FILE "08 - Gloria's Step.wav" WAVE INDEX 01 00:00:00 TRACK 09 AUDIO TITLE "Elsa" PERFORMER "Bill Evans" INDEX 00 06:52:42FILE "09 - Elsa.wav" WAVE INDEX 01 00:00:00


Трекер:  [ 16-Фев-2012 16:37 ]

  

Скачать .torrent

Размер .torrent файла 12 KB


Размер: 278 MB
Хэш (hash) релиза: 9917690a8810f14ad8e0bf77b5289a69ca29dda8

Еще никто не оставлял запись к записи скачать торрент Bill Evans - From The 70s . Будь первым!

!Обратная связь