Скачать через торрент музыку Bill Evans Trio Featuring Stan Getz - But Beautiful - 1996, FLAC бесплатно без регистрации torrent

Если у вас наблюдаются проблемы со скриншотами, переходом по ссылками, скачиванием торрентов - проблемы в блокировщике рекламы AdBlock. #хорошегоДня!


Статистика раздачи
Размер:  411 MB   |    Зарегистрирован:  5 лет 8 месяцев   |    .torrent скачан:  32 раза   |   
Раздают:  1  
   
Загрузка...
 
Автор Сообщение

Umakiro

avatar Umakiro


Bill Evans Trio Featuring Stan Getz - But Beautiful

Жанр: Jazz
Формат: FLAC (tracks)
Продолжительность: 01:09:41
Release Date: 19.03.1996
Label: Milestone Records
Recorded: 1, 2, 9, 10 - 09.08.1974 (at the Singer Concertzaal by Nederlandse Omroepprogramma Stichting (NOS) Jazz Festival in Laren, Holland); 3-8 - 16.08.1974 (at Middelheim in Antwerp, Belgium by Radiodiffusion Belgie)

Трэклист:

But Beautiful (1996)
01. Grandfather's Waltz (8:05)
02. Stan's Blues (5:49)
03. But Beautiful (5:43)
04. Emily (5:40)
05. Lover Man (8:03)
06. Funkallero (6:35)
07. The Peacocks (7:15)
08. You And The Night And The Music (7:37)
09. See-Saw (6:43)
10. The Two Lonely People (8:11)
Bill Evans - Piano
Stan Getz - Tenor Saxophone
Eddie Gomez - Bass
Marty Morell - Drums
Exact Audio Copy V0.99 prebeta 1 from 25. May 2007

Отчёт EAC об извлечении, выполненном 11. сентября 2007, 11:31

Bill Evans Trio Featuring Stan Getz / But Beautiful

Дисковод: _NEC DVD_RW ND-4570A Adapter: 1 ID: 1

Режим чтения : Достоверность
Использование точного потока : Да
Отключение кэша аудио : Да
Использование указателей C2 : Нет

Коррекция смещения при чтении : 48
Способность читать области Lead-in и Lead-out : Нет
Заполнение пропущенных сэмплов тишиной : Да
Удаление блоков с тишиной в начале и конце : Нет
Интерфейс : Установленный внешний ASPI-интерфейс
Обработка зазоров : Не обнаружено, добавлено к предыдущему треку

Выходной формат : Внутренние WAV-операции
Формат сэмплов : 44.100 Гц; 16 бит; стерео

TOC извлечённого CD

Трек | Старт | Длительность | Начальный сектор | Конечный сектор
---------------------------------------------------------------------
1 | 0:00.00 | 8:05.15 | 0 | 36389
2 | 8:05.15 | 5:49.02 | 36390 | 62566
3 | 13:54.17 | 5:43.40 | 62567 | 88331
4 | 19:37.57 | 5:40.08 | 88332 | 113839
5 | 25:17.65 | 8:03.37 | 113840 | 150101
6 | 33:21.27 | 6:35.60 | 150102 | 179786
7 | 39:57.12 | 7:15.55 | 179787 | 212466
8 | 47:12.67 | 7:37.53 | 212467 | 246794
9 | 54:50.45 | 6:43.35 | 246795 | 277054
10 | 61:34.05 | 8:11.57 | 277055 | 313936

Трек 1

Имя файла G:\Imidg\Новая папка\+Evans & Getz - But Beautiful\01 - Grandfather's Waltz.wav

Пиковый уровень 100.0 %
Качество трека 100.0 %
CRC копии 607594F0
Копирование... OK

Трек 2

Имя файла G:\Imidg\Новая папка\+Evans & Getz - But Beautiful\02 - Stan's Blues.wav

Пиковый уровень 100.0 %
Качество трека 99.9 %
CRC копии FB75C770
Копирование... OK

Трек 3

Имя файла G:\Imidg\Новая папка\+Evans & Getz - But Beautiful\03 - But Beautiful.wav

Пиковый уровень 99.9 %
Качество трека 100.0 %
CRC копии 96FFE19F
Копирование... OK

Трек 4

Имя файла G:\Imidg\Новая папка\+Evans & Getz - But Beautiful\04 - Emily.wav

Пиковый уровень 99.7 %
Качество трека 100.0 %
CRC копии 6104D612
Копирование... OK

Трек 5

Имя файла G:\Imidg\Новая папка\+Evans & Getz - But Beautiful\05 - Lover Man.wav

Пиковый уровень 100.0 %
Качество трека 99.9 %
CRC копии EED5761A
Копирование... OK

Трек 6

Имя файла G:\Imidg\Новая папка\+Evans & Getz - But Beautiful\06 - Funkallero.wav

Пиковый уровень 86.2 %
Качество трека 99.9 %
CRC копии 4D7B5B8E
Копирование... OK

Трек 7

Имя файла G:\Imidg\Новая папка\+Evans & Getz - But Beautiful\07 - The Peacocks.wav

Пиковый уровень 95.9 %
Качество трека 100.0 %
CRC копии 51A32EF6
Копирование... OK

Трек 8

Имя файла G:\Imidg\Новая папка\+Evans & Getz - But Beautiful\08 - You And The Night And The Music.wav

Пиковый уровень 99.9 %
Качество трека 100.0 %
CRC копии 88F23B67
Копирование... OK

Трек 9

Имя файла G:\Imidg\Новая папка\+Evans & Getz - But Beautiful\09 - See-Saw.wav

Пиковый уровень 100.0 %
Качество трека 99.9 %
CRC копии 8A37F9E8
Копирование... OK

Трек 10

Имя файла G:\Imidg\Новая папка\+Evans & Getz - But Beautiful\10 - The Two Lonely People.wav

Пиковый уровень 100.0 %
Качество трека 100.0 %
CRC копии F44E4FC9
Копирование... OK

Ошибок не произошло

Конец отчёта


Трекер:  [ 16-Фев-2012 16:37 ]

  

Скачать .torrent

Размер .torrent файла 17 KB


Размер: 411 MB
Хэш (hash) релиза: 5ecc0dfadff5b8665724df3881b478e7203d2de0

Еще никто не оставлял запись к записи скачать торрент Bill Evans Trio Featuring Stan Getz - But Beautiful - 1996, FLAC . Будь первым!

!Обратная связь