Скачать через торрент музыку Quadro Nuevo - Grand Voyage - 2010, FLAC бесплатно без регистрации torrent

Если у вас наблюдаются проблемы со скриншотами, переходом по ссылками, скачиванием торрентов - проблемы в блокировщике рекламы AdBlock. #хорошегоДня!


Статистика раздачи
Размер:  422 MB   |    Зарегистрирован:  5 лет 8 месяцев   |    .torrent скачан:  40 раз   |   
Раздают:  1  
   
Загрузка...
 
Автор Сообщение

Umakiro

avatar Umakiro


Quadro Nuevo / Grand Voyage

Жанр: Chamber Jazz, Crossover Jazz
Год издания диска: 2010
Аудио кодек: FLAC (*.flac)
Тип рипа: tracks+.cue
Битрейт аудио: lossless
Продолжительность: 1:18:56
Источник (релизер): allesalles
Наличие сканов в содержимом раздачи: нет
Треклист:
01. Die Reise nach Batumi (5:58)
02. Cancao do Mar (2:30)
03. Cien Anos (3:17)
04. Krim (5:36)
05. Samba para Parapente (5:15)
06. Aus der Stille der Nacht (4:56)
07. Nature Boy (5:07)
08. Die Abenteurer (4:12)
09. Lethe (6:35)
10. Antakya (concert version) (6:36)
11. Meteora (4:33)
12. Secret Garden (2:26)
13. Mosaique Tunisienne - Morning (2:31)
14. Mosaique Tunisienne - Afternoon (2:24)
15. Mosaique Tunisienne - Night (3:30)
16. Goaz boq Muzik (3:53)
17. Dopo lo Spettacolo (4:02)
18. Die Reise nach Batumi (orchestra version) (5:34)
 
Exact Audio Copy V0.99 prebeta 5 from 4. May 2009

EAC extraction logfile from 14. October 2010, 22:33

Quadro Nuevo / Grand Voyage

Used drive : HL-DT-STDVDRAM GSA-T20L Adapter: 1 ID: 0

Read mode : SecureUtilize accurate stream : YesDefeat audio cache : YesMake use of C2 pointers : No

Read offset correction : 667Overread into Lead-In and Lead-Out : NoFill up missing offset samples with silence : YesDelete leading and trailing silent blocks : NoNull samples used in CRC calculations : NoUsed interface : Native Win32 interface for Win NT & 2000Gap handling : Appended to previous track

Used output format : User Defined EncoderSelected bitrate : 1024 kBit/sQuality : HighAdd ID3 tag : NoCommand line compressor : C:\Program Files\Exact Audio Copy\Flac\flac.exeAdditional command line options : -T "artist=%a" -T "title=%t" -T "album=%g" -T "date=%y" -T "tracknumber=%n" -T "genre=%m" -5 %s

TOC of the extracted CD

Track | Start | Length | Start sector | End sector --------------------------------------------------------- 1 | 0:00.00 | 5:57.67 | 0 | 26841 2 | 5:57.67 | 2:30.21 | 26842 | 38112 3 | 8:28.13 | 3:16.70 | 38113 | 52882 4 | 11:45.08 | 5:35.66 | 52883 | 78073 5 | 17:20.74 | 5:14.41 | 78074 | 101664 6 | 22:35.40 | 4:56.18 | 101665 | 123882 7 | 27:31.58 | 5:06.69 | 123883 | 146901 8 | 32:38.52 | 4:12.34 | 146902 | 165835 9 | 36:51.11 | 6:34.50 | 165836 | 195435 10 | 43:25.61 | 6:36.33 | 195436 | 225168 11 | 50:02.19 | 4:33.28 | 225169 | 245671 12 | 54:35.47 | 2:26.12 | 245672 | 256633 13 | 57:01.59 | 2:31.33 | 256634 | 267991 14 | 59:33.17 | 2:23.66 | 267992 | 278782 15 | 61:57.08 | 3:29.72 | 278783 | 294529 16 | 65:27.05 | 3:53.16 | 294530 | 312020 17 | 69:20.21 | 4:01.66 | 312021 | 330161 18 | 73:22.12 | 5:33.67 | 330162 | 355203

Track 1

Filename D:\EAC-TEMP\Quadro Nuevo - Grand Voyage\01 Die Reise nach Batumi - Quadro Nuevo.wav

Pre-gap length 0:00:02.00

Peak level 98.8 % Track quality 100.0 % Test CRC 03E7FA06 Copy CRC 03E7FA06 Accurately ripped (confidence 2) [8EBCDCE8] Copy OK

Track 2

Filename D:\EAC-TEMP\Quadro Nuevo - Grand Voyage\02 Cancao do Mar - Quadro Nuevo.wav

Peak level 95.5 % Track quality 100.0 % Test CRC 2DC30F3A Copy CRC 2DC30F3A Accurately ripped (confidence 2) [9C632126] Copy OK

Track 3

Filename D:\EAC-TEMP\Quadro Nuevo - Grand Voyage\03 Cien Anos - Quadro Nuevo.wav

Pre-gap length 0:00:00.24

Peak level 98.8 % Track quality 100.0 % Test CRC 8D155EE8 Copy CRC 8D155EE8 Accurately ripped (confidence 2) [9FFF020B] Copy OK

Track 4

Filename D:\EAC-TEMP\Quadro Nuevo - Grand Voyage\04 Krim - Quadro Nuevo.wav

Pre-gap length 0:00:00.05

Peak level 92.2 % Track quality 100.0 % Test CRC 22978DB8 Copy CRC 22978DB8 Accurately ripped (confidence 2) [8591E836] Copy OK

Track 5

Filename D:\EAC-TEMP\Quadro Nuevo - Grand Voyage\05 Samba para Parapente - Quadro Nuevo.wav

Pre-gap length 0:00:00.10

Peak level 98.8 % Track quality 100.0 % Test CRC 6C074AC4 Copy CRC 6C074AC4 Accurately ripped (confidence 2) [53C486A7] Copy OK

Track 6

Filename D:\EAC-TEMP\Quadro Nuevo - Grand Voyage\06 Aus der Stille der Nacht - Quadro Nuevo.wav

Peak level 98.8 % Track quality 100.0 % Test CRC B82DD346 Copy CRC B82DD346 Accurately ripped (confidence 2) [57789429] Copy OK

Track 7

Filename D:\EAC-TEMP\Quadro Nuevo - Grand Voyage\07 Nature Boy - Quadro Nuevo.wav

Peak level 98.8 % Track quality 100.0 % Test CRC 33089F25 Copy CRC 33089F25 Accurately ripped (confidence 2) [555640D3] Copy OK

Track 8

Filename D:\EAC-TEMP\Quadro Nuevo - Grand Voyage\08 Die Abenteurer - Quadro Nuevo.wav

Pre-gap length 0:00:00.08

Peak level 98.8 % Track quality 100.0 % Test CRC 48BF2417 Copy CRC 48BF2417 Accurately ripped (confidence 2) [012E5DDE] Copy OK

Track 9

Filename D:\EAC-TEMP\Quadro Nuevo - Grand Voyage\09 Lethe - Quadro Nuevo.wav

Peak level 90.1 % Track quality 100.0 % Test CRC A2662FD0 Copy CRC A2662FD0 Accurately ripped (confidence 2) [E2B7684D] Copy OK

Track 10

Filename D:\EAC-TEMP\Quadro Nuevo - Grand Voyage\10 Antakya (concert version) - Quadro Nuevo.wav

Peak level 98.8 % Track quality 100.0 % Test CRC D4D7EF31 Copy CRC D4D7EF31 Accurately ripped (confidence 2) [CEF9433D] Copy OK

Track 11

Filename D:\EAC-TEMP\Quadro Nuevo - Grand Voyage\11 Meteora - Quadro Nuevo.wav

Peak level 93.3 % Track quality 100.0 % Test CRC DCCED278 Copy CRC DCCED278 Accurately ripped (confidence 2) [CB1CF36F] Copy OK

Track 12

Filename D:\EAC-TEMP\Quadro Nuevo - Grand Voyage\12 Secret Garden - Quadro Nuevo.wav

Peak level 92.2 % Track quality 100.0 % Test CRC 94AFA45F Copy CRC 94AFA45F Accurately ripped (confidence 2) [055DABCE] Copy OK

Track 13

Filename D:\EAC-TEMP\Quadro Nuevo - Grand Voyage\13 Mosaique Tunisienne - Morning - Quadro Nuevo.wav

Peak level 98.8 % Track quality 99.9 % Test CRC 4DD60B55 Copy CRC 4DD60B55 Accurately ripped (confidence 2) [EBB74D6A] Copy OK

Track 14

Filename D:\EAC-TEMP\Quadro Nuevo - Grand Voyage\14 Mosaique Tunisienne - Afternoon - Quadro Nuevo.wav

Peak level 98.8 % Track quality 100.0 % Test CRC 60D0DCFB Copy CRC 60D0DCFB Accurately ripped (confidence 2) [1289AA0B] Copy OK

Track 15

Filename D:\EAC-TEMP\Quadro Nuevo - Grand Voyage\15 Mosaique Tunisienne - Night - Quadro Nuevo.wav

Peak level 98.8 % Track quality 100.0 % Test CRC 9F2C4493 Copy CRC 9F2C4493 Accurately ripped (confidence 2) [37585895] Copy OK

Track 16

Filename D:\EAC-TEMP\Quadro Nuevo - Grand Voyage\16 Goaz boq Muzik - Quadro Nuevo.wav

Peak level 98.8 % Track quality 100.0 % Test CRC 283A3427 Copy CRC 283A3427 Accurately ripped (confidence 2) [D26C01FC] Copy OK

Track 17

Filename D:\EAC-TEMP\Quadro Nuevo - Grand Voyage\17 Dopo lo Spettacolo - Quadro Nuevo.wav

Peak level 90.1 % Track quality 100.0 % Test CRC 8D8ED693 Copy CRC 8D8ED693 Accurately ripped (confidence 2) [C750BA53] Copy OK

Track 18

Filename D:\EAC-TEMP\Quadro Nuevo - Grand Voyage\18 Die Reise nach Batumi (orchestra version) - Quadro Nuevo.wav

Pre-gap length 0:00:00.09

Peak level 98.8 % Track quality 100.0 % Test CRC F2200108 Copy CRC F2200108 Accurately ripped (confidence 2) [6EC3FDDF] Copy OK

All tracks accurately ripped

No errors occurred

End of status report
 
-----------------------

DON'T MODIFY THIS FILE

-----------------------

PERFORMER: auCDtect Task Manager, ver. 1.5.1RC3 build 1.5.1.4Copyright (c) 2008-2010 y-soft. All rights reservedhttp://y-soft.org

ANALYZER: auCDtect: CD records authenticity detector, version 0.8.2Copyright (c) 2004 Oleg Berngardt. All rights reserved.Copyright (c) 2004 Alexander Djourik. All rights reserved.

FILE: 18 Die Reise nach Batumi (orchestra version) - Quadro Nuevo.flac Size: 34281381 Hash: E2853000B981BE81C195915B433CA28F Accuracy: -m0 Conclusion: CDDA 100% Signature: 11FA527F9141A10A421C836B6F2637939DF9BA82FILE: 17 Dopo lo Spettacolo - Quadro Nuevo.flac Size: 19594302 Hash: 25A63BD5FF820E5ACE90C210EC9F4D7F Accuracy: -m0 Conclusion: CDDA 100% Signature: 9AE35D60085801E7B4E1B8C225053E01BCE09D5BFILE: 16 Goaz boq Muzik - Quadro Nuevo.flac Size: 23647779 Hash: 4A0683160FE6B7FB73EB9C2DDAA2147B Accuracy: -m0 Conclusion: CDDA 100% Signature: 11BBF78605AFC4DDB43A9C76B5030F4D9B3EECC8FILE: 15 Mosaique Tunisienne - Night - Quadro Nuevo.flac Size: 19213865 Hash: 333DD70FF48B692E84189C92F37B0BC3 Accuracy: -m0 Conclusion: CDDA 100% Signature: A305EEF871B9FFC22287D0FE3615FBAE9AAF6483FILE: 14 Mosaique Tunisienne - Afternoon - Quadro Nuevo.flac Size: 13948957 Hash: E433C55CC5CD26398B9EFE8DA3D0C108 Accuracy: -m0 Conclusion: CDDA 100% Signature: 2B51ABE0CB9A10D4A975DE130E1FEAFC898835E6FILE: 13 Mosaique Tunisienne - Morning - Quadro Nuevo.flac Size: 12395178 Hash: 6FBA501DD51B8FFF38EFEFF5ADB79762 Accuracy: -m0 Conclusion: CDDA 99% Signature: E95B84EE38A61FFF6E892057EABB722062CE5C15FILE: 12 Secret Garden - Quadro Nuevo.flac Size: 12556998 Hash: A26819F350D88CBF4D3E0F5C76E7F3A0 Accuracy: -m0 Conclusion: CDDA 100% Signature: 63EE39757C9321523D919D72491EFB843DA803DDFILE: 11 Meteora - Quadro Nuevo.flac Size: 27534088 Hash: 349163E6E885341394AF39516007A40C Accuracy: -m0 Conclusion: MPEG 95% Signature: 5A595A62C1653B6BE406D5B3B7AC1BC53E770046FILE: 10 Antakya (concert version) - Quadro Nuevo.flac Size: 38709055 Hash: 5BB4350AA6AA4831199ED087BDC302DD Accuracy: -m0 Conclusion: CDDA 100% Signature: 501872B7DFD87020C5B6BC6C80526FE0C7251952FILE: 09 Lethe - Quadro Nuevo.flac Size: 34138279 Hash: 1DDB4E19690C2C2ED35447214162BC94 Accuracy: -m0 Conclusion: CDDA 100% Signature: 0BE923E036ECD6E335B9B9E43E3522FF6525EE87FILE: 08 Die Abenteurer - Quadro Nuevo.flac Size: 22436516 Hash: A29D7D5041FD826D5D31EF9187BC1EA5 Accuracy: -m0 Conclusion: CDDA 100% Signature: DBDF90CF1C4E207004B9E02DD9A1091F2A90C5E2FILE: 07 Nature Boy - Quadro Nuevo.flac Size: 26680112 Hash: 11A6D2B3C1BE70D0E51E0D795CA981E5 Accuracy: -m0 Conclusion: CDDA 99% Signature: B48E7B78C0D3B95ACDC95A909A56C036EC939335FILE: 06 Aus der Stille der Nacht - Quadro Nuevo.flac Size: 25674527 Hash: ED2B2259EBD2CAD17AC23D4E9AA6D303 Accuracy: -m0 Conclusion: CDDA 100% Signature: F7535F9C67B31840D45CA673C73E37AE5550B975FILE: 05 Samba para Parapente - Quadro Nuevo.flac Size: 33819268 Hash: DFAA2DFCFC1E13B0FE5BA9B86568F1BB Accuracy: -m0 Conclusion: CDDA 100% Signature: 06DBF851B36A015EE56A3703D83F85C2F8F83F26FILE: 04 Krim - Quadro Nuevo.flac Size: 31366520 Hash: 372792763027410FB301CFFB0A9577E4 Accuracy: -m0 Conclusion: CDDA 100% Signature: 9CF7DAEB9968B5F8A38E96910A9F92739FF181DEFILE: 03 Cien Anos - Quadro Nuevo.flac Size: 17812659 Hash: E38C1288193EAEAE17A572819AD410D1 Accuracy: -m0 Conclusion: CDDA 100% Signature: ADC1ADEB3F0DD79ED03FC57ECA3D7F50EC8FC2A9FILE: 02 Cancao do Mar - Quadro Nuevo.flac Size: 11955860 Hash: B77B2CC74E74CA375D8577EA037CAB90 Accuracy: -m0 Conclusion: CDDA 100% Signature: 31C1055B80BA13C9F8ACB8CD7D654ED09685079EFILE: 01 Die Reise nach Batumi - Quadro Nuevo.flac Size: 36691862 Hash: ABA172DB05D31572BB7B2009C086A81B Accuracy: -m0 Conclusion: CDDA 100% Signature: 869F6D9DEF0888E244F743C998C51FE3263891D1
 
REM GENRE JazzREM DATE 2010REM DISCID F2128012REM COMMENT "ExactAudioCopy v0.99pb5"PERFORMER "Quadro Nuevo"TITLE "Grand Voyage"FILE "01 Die Reise nach Batumi - Quadro Nuevo.flac" WAVE TRACK 01 AUDIO TITLE "Die Reise nach Batumi" PERFORMER "Quadro Nuevo" INDEX 01 00:00:00FILE "02 Cancao do Mar - Quadro Nuevo.flac" WAVE TRACK 02 AUDIO TITLE "Cancao do Mar" PERFORMER "Quadro Nuevo" INDEX 01 00:00:00FILE "03 Cien Anos - Quadro Nuevo.flac" WAVE TRACK 03 AUDIO TITLE "Cien Anos " PERFORMER "Quadro Nuevo" INDEX 01 00:00:00FILE "04 Krim - Quadro Nuevo.flac" WAVE TRACK 04 AUDIO TITLE "Krim" PERFORMER "Quadro Nuevo" INDEX 01 00:00:00FILE "05 Samba para Parapente - Quadro Nuevo.flac" WAVE TRACK 05 AUDIO TITLE "Samba para Parapente" PERFORMER "Quadro Nuevo" INDEX 01 00:00:00FILE "06 Aus der Stille der Nacht - Quadro Nuevo.flac" WAVE TRACK 06 AUDIO TITLE "Aus der Stille der Nacht " PERFORMER "Quadro Nuevo" INDEX 01 00:00:00FILE "07 Nature Boy - Quadro Nuevo.flac" WAVE TRACK 07 AUDIO TITLE "Nature Boy" PERFORMER "Quadro Nuevo" INDEX 01 00:00:00FILE "08 Die Abenteurer - Quadro Nuevo.flac" WAVE TRACK 08 AUDIO TITLE "Die Abenteurer" PERFORMER "Quadro Nuevo" INDEX 01 00:00:00FILE "09 Lethe - Quadro Nuevo.flac" WAVE TRACK 09 AUDIO TITLE "Lethe" PERFORMER "Quadro Nuevo" INDEX 01 00:00:00FILE "10 Antakya (concert version) - Quadro Nuevo.flac" WAVE TRACK 10 AUDIO TITLE "Antakya (concert version)" PERFORMER "Quadro Nuevo" INDEX 01 00:00:00FILE "11 Meteora - Quadro Nuevo.flac" WAVE TRACK 11 AUDIO TITLE "Meteora " PERFORMER "Quadro Nuevo" INDEX 01 00:00:00FILE "12 Secret Garden - Quadro Nuevo.flac" WAVE TRACK 12 AUDIO TITLE "Secret Garden " PERFORMER "Quadro Nuevo" INDEX 01 00:00:00FILE "13 Mosaique Tunisienne - Morning - Quadro Nuevo.flac" WAVE TRACK 13 AUDIO TITLE "Mosaique Tunisienne - Morning" PERFORMER "Quadro Nuevo" INDEX 01 00:00:00FILE "14 Mosaique Tunisienne - Afternoon - Quadro Nuevo.flac" WAVE TRACK 14 AUDIO TITLE "Mosaique Tunisienne - Afternoon" PERFORMER "Quadro Nuevo" INDEX 01 00:00:00FILE "15 Mosaique Tunisienne - Night - Quadro Nuevo.flac" WAVE TRACK 15 AUDIO TITLE "Mosaique Tunisienne - Night" PERFORMER "Quadro Nuevo" INDEX 01 00:00:00FILE "16 Goaz boq Muzik - Quadro Nuevo.flac" WAVE TRACK 16 AUDIO TITLE "Goaz boq Muzik" PERFORMER "Quadro Nuevo" INDEX 01 00:00:00FILE "17 Dopo lo Spettacolo - Quadro Nuevo.flac" WAVE TRACK 17 AUDIO TITLE "Dopo lo Spettacolo" PERFORMER "Quadro Nuevo" INDEX 01 00:00:00FILE "18 Die Reise nach Batumi (orchestra version) - Quadro Nuevo.flac" WAVE TRACK 18 AUDIO TITLE "Die Reise nach Batumi (orchestra version)" PERFORMER "Quadro Nuevo" INDEX 01 00:00:00


Трекер:  [ 16-Фев-2012 16:36 ]

  

Скачать .torrent

Размер .torrent файла 18 KB


Размер: 422 MB
Хэш (hash) релиза: b1534d88e27d34813be146e15931729f9bfc8ed9

Еще никто не оставлял запись к записи скачать торрент Quadro Nuevo - Grand Voyage - 2010, FLAC . Будь первым!

!Обратная связь