Скачать через торрент музыку Dave Douglas - Parallel Worlds - 1993, FLAC бесплатно без регистрации torrent

Если у вас наблюдаются проблемы со скриншотами, переходом по ссылками, скачиванием торрентов - проблемы в блокировщике рекламы AdBlock. #хорошегоДня!


Статистика раздачи
Размер:  324 MB   |    Зарегистрирован:  5 лет 8 месяцев   |    .torrent скачан:  42 раза   |   
Раздают:  1  
   
Загрузка...
 
Автор Сообщение

Umakiro

avatar Umakiro


Dave Douglas - Parallel Worlds

Жанр: Modern Creative / Post-Bop / Third Stream / Avant-Garde
Год выпуска диска: 1993
Производитель диска: Italy (Soul Note)
Аудио кодек: FLAC
Тип рипа: image+.cue
Битрейт аудио: lossless
Продолжительность: 63:22

Dave Douglas trumpet
Erik Friedlander cello
Mark Dresser bass
Mark Feldman violin
Michael Sarin drums
Tim Berne producer
Trumpeter Dave Douglas is attracting attention among fans and critics on the underground and avant-garde/free music trail. He shows what the hype is all about on this session with some surging solos, high-note explosiveness and impressive playing. But Douglas doesn't merely spew unconnected lines or flashy solos; his playing is a vital part of several originals that feature an intriguing violin/cello/bass backing section. The compositions range from loose, spacy tunes to animated, fierce ones. This isn't another hard bop outing or a completely free-wheeling session; instead, it's got elements of both, and a departure as well. It requires close scrutiny and a completely open mind, because Dave Douglas is following no direction except his own.
~ Ron Wynn, All Music Guide
Exact Audio Copy V0.99 prebeta 4 from 23. January 2008

EAC extraction logfile from 14. November 2008, 12:32

Dave Douglas / Parallel Worlds

Used drive : HL-DT-STDVD-ROM GDR8162B Adapter: 1 ID: 0

Read mode : Secure
Utilize accurate stream : Yes
Defeat audio cache : Yes
Make use of C2 pointers : No

Read offset correction : 102
Overread into Lead-In and Lead-Out : No
Fill up missing offset samples with silence : Yes
Delete leading and trailing silent blocks : No
Null samples used in CRC calculations : Yes
Used interface : Installed external ASPI interface

Used output format : User Defined Encoder
Selected bitrate : 1024 kBit/s
Quality : High
Add ID3 tag : No
Command line compressor : C:\Program Files\Exact Audio Copy\FLAC\FLAC.EXE
Additional command line options : -6 -V -T "ARTIST=%a" -T "TITLE=%t" -T "ALBUM=%g" -T "DATE=%y" -T "TRACKNUMBER=%n" -T "GENRE=%m" -T "COMMENT=%e" %s -o %d

TOC of the extracted CD

Track | Start | Length | Start sector | End sector
---------------------------------------------------------
1 | 0:00.33 | 1:30.05 | 33 | 6787
2 | 1:30.38 | 9:14.17 | 6788 | 48354
3 | 10:44.55 | 5:35.53 | 48355 | 73532
4 | 16:20.33 | 7:04.00 | 73533 | 105332
5 | 23:24.33 | 6:51.20 | 105333 | 136177
6 | 30:15.53 | 6:00.55 | 136178 | 163232
7 | 36:16.33 | 5:51.00 | 163233 | 189557
8 | 42:07.33 | 7:08.25 | 189558 | 221682
9 | 49:15.58 | 9:23.70 | 221683 | 263977
10 | 58:39.53 | 4:17.55 | 263978 | 283307

Range status and errors

Selected range

Filename C:\eac\Dave Douglas - Parallel Worlds.wav

Peak level 96.6 %
Range quality 100.0 %
Copy CRC FF941E3C
Copy OK

No errors occurred

End of status report


Трекер:  [ 16-Фев-2012 16:35 ]

  

Скачать .torrent

Размер .torrent файла 13 KB


Размер: 324 MB
Хэш (hash) релиза: 5c9c64b34c920035b6759be98eaa463f53e66928

Еще никто не оставлял запись к записи скачать торрент Dave Douglas - Parallel Worlds - 1993, FLAC . Будь первым!

!Обратная связь