Скачать через торрент музыку The Jimmy Giuffre 3 - The Easy Way {1959} - 2003, FLAC бесплатно без регистрации torrent

Если у вас наблюдаются проблемы со скриншотами, переходом по ссылками, скачиванием торрентов - проблемы в блокировщике рекламы AdBlock. #хорошегоДня!


Статистика раздачи
Размер:  203 MB   |    Зарегистрирован:  5 лет 8 месяцев   |    .torrent скачан:  24 раза   |   
Раздают:  1  
   
Загрузка...
 
Автор Сообщение

Umakiro

avatar Umakiro


•The Jimmy Giuffre 3 - The Easy Way {1959}•

Жанр: Cool
Страна-производитель диска: USA
Год издания диска: 2003
Издатель (лейбл): Verve
Аудиокодек: FLAC (*.flac)
Тип рипа: tracks+.cue
Битрейт аудио: lossless
Продолжительность: 00:40:17
Источник (релизер): mishka1981
Наличие сканов в содержимом раздачи: да

Треклист:

01. The Easy Way
02. Mack the Knife
03. Come Rain or Come Shine
04. Careful
05. Ray's Time
06. Dream, A
07. Off Center
08. Montage
09. Time Enough


Personnel:Jimmy Giuffre (ts, bars, cl)
Jim Hall (g)
Ray Brown (bass)
 
Exact Audio Copy V1.0 beta 1 from 15. November 2010

EAC extraction logfile from 14. February 2012, 14:20

Jimmy Giuffre / The Easy Way

Used drive : Optiarc DVD RW AD-7710H Adapter: 1 ID: 0

Read mode : SecureUtilize accurate stream : YesDefeat audio cache : YesMake use of C2 pointers : No

Read offset correction : 48Overread into Lead-In and Lead-Out : NoFill up missing offset samples with silence : YesDelete leading and trailing silent blocks : NoNull samples used in CRC calculations : YesUsed interface : Native Win32 interface for Win NT & 2000Gap handling : Appended to previous track

Used output format : User Defined EncoderSelected bitrate : 896 kBit/sQuality : HighAdd ID3 tag : NoCommand line compressor : C:\Program Files\Exact Audio Copy\FLAC\FLAC.EXEAdditional command line options : -8 -V -T "ARTIST=%a" -T "TITLE=%t" -T "ALBUM=%g" -T "DATE=%y" -T "TRACKNUMBER=%n" -T "GENRE=%m" -T "COMMENT=%e" %j--picture="%i"%j %s -o %d

TOC of the extracted CD

Track | Start | Length | Start sector | End sector --------------------------------------------------------- 1 | 0:00.00 | 5:56.67 | 0 | 26766 2 | 5:56.67 | 4:54.53 | 26767 | 48869 3 | 10:51.45 | 4:32.16 | 48870 | 69285 4 | 15:23.61 | 6:30.13 | 69286 | 98548 5 | 21:53.74 | 7:00.08 | 98549 | 130056 6 | 28:54.07 | 2:09.38 | 130057 | 139769 7 | 31:03.45 | 4:41.47 | 139770 | 160891 8 | 35:45.17 | 1:51.03 | 160892 | 169219 9 | 37:36.20 | 2:41.17 | 169220 | 181311

Track 1

Filename C:\MY RIPS\01 - The Easy Way.wav

Pre-gap length 0:00:02.00

Peak level 98.8 % Extraction speed 2.9 X Track quality 100.0 % Test CRC DD4EE6EB Copy CRC DD4EE6EB Accurately ripped (confidence 5) [4F80682E] Copy OK

Track 2

Filename C:\MY RIPS\02 - Mack The Knife.wav

Pre-gap length 0:00:02.45

Peak level 81.6 % Extraction speed 3.3 X Track quality 100.0 % Test CRC 87FE4D72 Copy CRC 87FE4D72 Accurately ripped (confidence 5) [36330868] Copy OK

Track 3

Filename C:\MY RIPS\03 - Come Rain or Come Shine.wav

Pre-gap length 0:00:02.19

Peak level 65.9 % Extraction speed 3.5 X Track quality 100.0 % Test CRC 44083D01 Copy CRC 44083D01 Accurately ripped (confidence 5) [3AD48CAC] Copy OK

Track 4

Filename C:\MY RIPS\04 - Careful.wav

Pre-gap length 0:00:02.63

Peak level 80.9 % Extraction speed 3.5 X Track quality 99.9 % Test CRC 4737338C Copy CRC 4737338C Accurately ripped (confidence 5) [A05CE353] Copy OK

Track 5

Filename C:\MY RIPS\05 - Ray's Time.wav

Pre-gap length 0:00:02.74

Peak level 82.3 % Extraction speed 4.4 X Track quality 100.0 % Test CRC A2B51A55 Copy CRC A2B51A55 Accurately ripped (confidence 5) [B387A65C] Copy OK

Track 6

Filename C:\MY RIPS\06 - A Dream.wav

Pre-gap length 0:00:02.46

Peak level 47.1 % Extraction speed 2.9 X Track quality 99.9 % Test CRC 62768C9F Copy CRC 62768C9F Accurately ripped (confidence 5) [55881EA9] Copy OK

Track 7

Filename C:\MY RIPS\07 - Off Center.wav

Pre-gap length 0:00:02.44

Peak level 75.9 % Extraction speed 4.6 X Track quality 100.0 % Test CRC CBD668F6 Copy CRC CBD668F6 Accurately ripped (confidence 5) [3FB2E69E] Copy OK

Track 8

Filename C:\MY RIPS\08 - Montage.wav

Pre-gap length 0:00:02.51

Peak level 53.2 % Extraction speed 4.0 X Track quality 100.0 % Test CRC 327E40AB Copy CRC 327E40AB Accurately ripped (confidence 5) [F2031A8A] Copy OK

Track 9

Filename C:\MY RIPS\09 - Time Enough.wav

Pre-gap length 0:00:02.46

Peak level 76.9 % Extraction speed 4.4 X Track quality 100.0 % Test CRC CC8BC681 Copy CRC CC8BC681 Accurately ripped (confidence 5) [126D063B] Copy OK

All tracks accurately ripped

No errors occurred

End of status report

==== Log checksum 704D27E8C8F335579D47447E3176774EA2649C8AF6EC4CBC59E773F7CDCF36FE ====
 
REM GENRE JazzREM DATE 2003REM DISCID 7E097109REM COMMENT "ExactAudioCopy v1.0b1"PERFORMER "Jimmy Giuffre"TITLE "The Easy Way"FILE "01 - The Easy Way.wav" WAVE TRACK 01 AUDIO TITLE "The Easy Way" PERFORMER "Jimmy Giuffre" INDEX 01 00:00:00 TRACK 02 AUDIO TITLE "Mack The Knife" PERFORMER "Jimmy Giuffre" INDEX 00 05:54:22FILE "02 - Mack The Knife.wav" WAVE INDEX 01 00:00:00 TRACK 03 AUDIO TITLE "Come Rain or Come Shine" PERFORMER "Jimmy Giuffre" INDEX 00 04:52:34FILE "03 - Come Rain or Come Shine.wav" WAVE INDEX 01 00:00:00 TRACK 04 AUDIO TITLE "Careful" PERFORMER "Jimmy Giuffre" INDEX 00 04:29:28FILE "04 - Careful.wav" WAVE INDEX 01 00:00:00 TRACK 05 AUDIO TITLE "Ray's Time" PERFORMER "Jimmy Giuffre" INDEX 00 06:27:14FILE "05 - Ray's Time.wav" WAVE INDEX 01 00:00:00 TRACK 06 AUDIO TITLE "A Dream" PERFORMER "Jimmy Giuffre" INDEX 00 06:57:37FILE "06 - A Dream.wav" WAVE INDEX 01 00:00:00 TRACK 07 AUDIO TITLE "Off Center" PERFORMER "Jimmy Giuffre" INDEX 00 02:06:69FILE "07 - Off Center.wav" WAVE INDEX 01 00:00:00 TRACK 08 AUDIO TITLE "Montage" PERFORMER "Jimmy Giuffre" INDEX 00 04:38:71FILE "08 - Montage.wav" WAVE INDEX 01 00:00:00 TRACK 09 AUDIO TITLE "Time Enough" PERFORMER "Jimmy Giuffre" INDEX 00 01:48:32FILE "09 - Time Enough.wav" WAVE INDEX 01 00:00:00


Трекер:  [ 16-Фев-2012 16:34 ]

  

Скачать .torrent

Размер .torrent файла 17 KB


Размер: 203 MB
Хэш (hash) релиза: 71e72cd065e85a6f6d9a2b3a29e9e7200fb93a2b

Еще никто не оставлял запись к записи скачать торрент The Jimmy Giuffre 3 - The Easy Way {1959} - 2003, FLAC . Будь первым!

!Обратная связь